Поиск

2006 Avishai Cohen - Continuo

2006 Avishai Cohen - Continuo
Дата записи диска:
10-17 декабря 2005
Дата издания диска:
23 мая 2006
Номер по каталогу:
SSC 4603
Носитель:
CD
Время звучания:
50:38
Релизёр (источник):
slax65
Треклист:
01. Nu Nu (5:14)
02. Elli (In Memory of Elisheva Greenbaum) (3:57)
03. One For Mark (4:58)
04. Ani Maamin (5:15)
05. Samuel (5:16)
06. Emotional Storm (7:30)
07. Calm (3:16)
08. Arava (5:20)
09. Smash (5:31)
10. Continuo (4:11)
Состав:
  • Sam Barsh Handclapping, Keyboards, Piano
  • Avishai Cohen Arranger, Bass, Bass (Acoustic), Bass (Electric), Bass (Upright), Composer, Guitar (Bass), Handclapping, Liner Notes
  • Mark Guiliana Drums, Handclapping, Percussion
  • Amos Hoffman Handclapping, Oud
  • Ray Jefford Audio Production, Producer
REM DISCID 880BD40A
REM COMMENT "ExactAudioCopy v0.95b4"
PERFORMER "Avishai Cohen"
TITLE "Continuo"
FILE "Unknown Artist - Unknown Title.ape" WAVE
TRACK 01 AUDIO
TITLE "Nu Nu"
PERFORMER "Avishai Cohen"
ISRC 000000000000
INDEX 01 00:00:00
TRACK 02 AUDIO
TITLE "Elli (In Memory of Elisheva Greenbaum)"
PERFORMER "Avishai Cohen"
ISRC 000000000000
INDEX 01 05:14:45
TRACK 03 AUDIO
TITLE "One For Mark"
PERFORMER "Avishai Cohen"
ISRC 000000000000
INDEX 01 09:10:48
TRACK 04 AUDIO
TITLE "Ani Maamin"
PERFORMER "Avishai Cohen"
ISRC 000000000000
INDEX 01 14:08:66
TRACK 05 AUDIO
TITLE "Samuel"
PERFORMER "Avishai Cohen"
ISRC 000000000000
INDEX 01 19:24:42
TRACK 06 AUDIO
TITLE "Emotional Storm"
PERFORMER "Avishai Cohen"
ISRC 000000000000
INDEX 01 24:40:31
TRACK 07 AUDIO
TITLE "Calm"
PERFORMER "Avishai Cohen"
ISRC 000000000000
INDEX 01 32:10:44
TRACK 08 AUDIO
TITLE "Arava"
PERFORMER "Avishai Cohen"
ISRC 000000000000
INDEX 01 35:26:74
TRACK 09 AUDIO
TITLE "Smash"
PERFORMER "Avishai Cohen"
ISRC 000000000000
INDEX 01 40:46:05
TRACK 10 AUDIO
TITLE "Continuo"
PERFORMER "Avishai Cohen"
ISRC 000000000000
INDEX 01 46:16:50
19:44
40
RSS
Нет комментариев. Ваш будет первым!