Поиск

2006 Antonio Carlos Jobim - One Note Samba {Verve, Universal 4605026710528}

2006 Antonio Carlos Jobim - One Note Samba {Verve, Universal 4605026710528}
Стили:
Издатель (лейбл):
Треклист:

01.    Samba Do Soo (3:00)
02.    Remember (4:00)
03.    Look To The Sky (2:18)
04.    The Girl From Ipanema (2:42)
05.    Chovendo Na Roseira (3:11)
06.    Wave (2:52)
07.    Takatanga (4:42)
08.    Isabella (3:24)
09.    Vivo Sonhando (Dreamer) (2:36)
10.    Antigua (3:08)
11.    Samba De Uma Nota So (One Note Samba) (2:15)
12.    Caribe (2:43)
13.    Anos Dourados (3:44)
14.    The Red Blouse (5:04)
15.    O Morro Nao Tem Vez (3:21)
16.    Triste (2:40)
17.    Desafinado (2:44)
18.    Lamento (2:43)

Recorded May 22-24 & June 15.1967, New Jersey /Original: A&M SP 3002

Страна-производитель диска (релиза): USA
Дата издания диска: 2006
Номер по каталогу: 4605026710528
Носитель: CD
Битрейт аудио: lossless
Аудиокодек: FLAC (*.flac)
Тип рипа: img+.cue
Время звучания: 57:40
Наличие сканов: да
Релизёр (источник): JVA

 
Состав

1    Samba Do Soo (3:00)
Backing Vocals – Ana Lontra Jobim, Elizabeth Jobim, Paula Morelenbaum, Simone Caymmi
Bass – Sebastiao Neto*
Cello – Jaques Morelenbaum
Drums, Percussion – Paulo Braga*
Flute – Danilo Caymmi
Guitar, Vocals – Paulo Jobim
Percussion – Ohana
Written-By – Paulo Jobim, Ronaldo Bastos
2    Remember (4:00)
Arranged By, Conductor – Eumir Deodato
Bass – Ron Carter
Drums – Joao Palma*
Electric Piano – Antonio Carlos Jobim
Flute – Hubert Laws, Jerry Dodgion, Romeo Penque
Percussion – Everaldo Ferreira
Piano, Guitar – Eumir Deodato
Written-By – Antonio Carlos Jobim
3    Look To The Sky (2:18)
Arranged By, Conductor – Claus Ogerman
Bass – Ron Carter
Drums, Percussion – Bobby Rosengarden, Claudio Slon, Dom Um Romao
Flute – Jerome Richardson, Ray Beckenstein, Romeo Penque
French Horn – Joseph Singer
Piano, Guitar – Antonio Carlos Jobim
Trombone – Jimmy Cleveland, Urbie Green
Written-By – Antonio Carlos Jobim
4    The Girl From Ipanema (2:42)
Arranged By, Conductor – Claus Ogerman
Bass – George Duvivier
Drums – Edson Machado*
Flute – Leo Wright
Piano, Guitar – Antonio Carlos Jobim
Written-By – Antonio Carlos Jobim, Vinicius De Moraes
5    Chovendo Na Roseira (3:11)
Acoustic Guitar – Oscar Castro-Neves
Arranged By – Cesar Camargo Mariano*
Drums – Paulo Braga*
Electric Bass – Luizão Maia
Electric Piano [Fender Rhodes] – Cesar Camargo Mariano*
Piano, Guitar – Antonio Carlos Jobim
Vocals – Elis Regina
Written-By – Antonio Carlos Jobim
6    Wave (2:52)
Arranged By, Conductor – Claus Ogerman
Bass – Ron Carter
Drums, Percussion – Bobby Rosengarden, Claudio Slon, Dom Um Romao
Flute – Jerome Richardson, Ray Beckenstein, Romeo Penque
French Horn – Joseph Singer
Piano, Guitar – Antonio Carlos Jobim
Trombone – Jimmy Cleveland, Urbie Green
Written-By – Antonio Carlos Jobim
7    Takatanga (4:42)
Arranged By, Conductor – Eumir Deodato
Bass – Ron Carter
Drums – Joao Palma*
Guitar, Electric Piano – Antonio Carlos Jobim
Percussion – Airto Moreira, Everaldo Ferreira
Trombone – Urbie Green
Written-By – Antonio Carlos Jobim
8    Isabella (3:24)
Bass – Sebastiao Neta*
Drums – Paulo Braga*
Flute – Danilo Caymmi
Guitar, Vocals – Antonio Carlos Jobim
Vocals – Paula Morelenbaum
Written-By – Antonio Carlos Jobim, Gil Goldstein
9    Vivo Sonhando (Dreamer) (2:36)
Arranged By, Conductor – Claus Ogerman
Bass – George Duvivier
Drums – Edson Machado*
Flute – Leo Wright
Piano, Guitar – Antonio Carlos Jobim
Trombone – Jimmy Cleveland
Written-By – Antonio Carlos Jobim
10    Antigua (3:08)
Arranged By, Conductor – Claus Ogerman
Bass – Ron Carter
Drums, Percussion – Bobby Rosengarden, Claudio Slon, Dom Um Romao
Flute – Jerome Richardson, Ray Beckenstein, Romeo Penque
French Horn – Joseph Singer
Piano, Guitar – Antonio Carlos Jobim
Trombone – Jimmy Cleveland, Urbie Green
Written-By – Antonio Carlos Jobim
11    Samba De Uma Nota So (One Note Samba) (2:15)
Arranged By, Conductor – Claus Ogerman
Bass – George Duvivier
Drums – Edson Machado*
Flute – Leo Wright
Piano, Guitar – Antonio Carlos Jobim
Written-By – Antonio Carlos Jobim, Newton Mendonca*
12    Caribe (2:43)
Arranged By, Conductor – Eumir Deodato
Bass – Ron Carter
Drums – Joao Palma*
Flute – Hubert Laws, Jerry Dodgion, Romeo Penque
Guitar, Electric Piano – Antonio Carlos Jobim
Percussion – Airto Moreira
Saxophone [Soprano] – Joe Farrell
Trombone – Urbie Green
Trumpet – Marvin Stamm
Written-By – Antonio Carlos Jobim
13    Anos Dourados (3:44)
Bass – Sebastiao Neto*
Drums – Paulo Braga*
Flute – Danilo Caymmi
Piano, Vocals – Antonio Carlos Jobim
Vocals – Chico Buarque
Written-By – Antonio Carlos Jobim
14    The Red Blouse (5:04)
Arranged By, Conductor – Claus Ogerman
Bass – Ron Carter
Drums, Percussion – Bobby Rosengarden, Claudio Slon, Dom Um Romao
Flute – Jerome Richardson, Ray Beckenstein, Romeo Penque
French Horn – Joseph Singer
Piano, Guitar – Antonio Carlos Jobim
Trombone – Jimmy Cleveland, Urbie Green
Written-By – Antonio Carlos Jobim
15    O Morro Nao Tem Vez (3:21)
Bass – George Duvivier
Drums – Edson Machado*
Flute – Leo Wright
Piano, Guitar – Antonio Carlos Jobim
Written-By – Antonio Carlos Jobim, Vinicius De Moraes
16    Triste (2:40)
Acoustic Guitar – Oscar Castro-Neves
Arranged By, Conductor – Cesar Camargo Mariano*
Drums – Paulo Braga*
Electric Bass – Luizão Maia
Electric Guitar – Helio Delmiro*
Piano – Cesar Camargo Mariano*
Vocals – Elis Regina
Written-By – Antonio Carlos Jobim
17    Desafinado (2:44)
Arranged By, Conductor – Claus Ogerman
Bass – George Duvivier
Flute – Leo Wright
Percussion – Unknown Artist
Piano, Guitar – Antonio Carlos Jobim
Trombone – Jimmy Cleveland
Written-By – Antonio Carlos Jobim
18    Lamento (2:43)
Arranged By, Conductor – Claus Ogerman
Bass – Ron Carter
Drums, Percussion – Bobby Rosengarden, Claudio Slon, Dom Um Romao
Flute – Jerome Richardson, Ray Beckenstein, Romeo Penque
French Horn – Joseph SInger
Piano, Guitar, Vocals – Antonio Carlos Jobim
Trombone – Jimmy Cleveland, Urbie Green
Written-By – Antonio Carlos Jobim, Vinicius De Moraes

Лог создания рипа
Exact Audio Copy V0.99 prebeta 5 from 4. May 2009

Отчёт EAC об извлечении, выполненном 4. сентября 2012, 14:07

Antonio Carlos Jobim / Jazzclub Legends - One Note Samba

Дисковод: _NEC    DVD_RW ND-4571A   Adapter: 0  ID: 0

Режим чтения                 : Достоверность
Использование точного потока : Да
Отключение кэша аудио        : Да
Использование указателей C2  : Нет

Коррекция смещения при чтении                     : 48
Способность читать области Lead-in и Lead-out     : Нет
Заполнение пропущенных сэмплов тишиной            : Да
Удаление блоков с тишиной в начале и конце        : Нет
При вычислениях CRC использовались нулевые сэмплы : Да
Интерфейс                                         : Встроенный Win32-интерфейс для Win NT/2000

Выходной формат          : Пользовательский кодировщик
Выбранный битрейт        : 768 kBit/s
Качество                 : Высокий
Добавление ID3-тэга      : Нет
Утилита сжатия           : C:\Program Files\Exact Audio Copy\Flac\flac.exe
Дополнительные параметры : -6 -V -T "ARTIST=%a" -T "TITLE=%t" -T "ALBUM=%g" -T "DATE=%y" -T "TRACKNUMBER=%n" -T "GENRE=%m" -T "COMMENT=%e" %s -o %d


TOC извлечённого CD

     Трек |   Старт  | Длительность | Начальный сектор | Конечный сектор 
    ---------------------------------------------------------------------
       1  |  0:00.00 |    3:02.14   |           0      |      13663      
       2  |  3:02.14 |    4:02.61   |       13664      |      31874      
       3  |  7:05.00 |    2:20.12   |       31875      |      42386      
       4  |  9:25.12 |    2:43.01   |       42387      |      54612      
       5  | 12:08.13 |    3:13.13   |       54613      |      69100      
       6  | 15:21.26 |    2:53.50   |       69101      |      82125      
       7  | 18:15.01 |    4:43.61   |       82126      |     103411      
       8  | 22:58.62 |    3:25.08   |      103412      |     118794      
       9  | 26:23.70 |    2:37.65   |      118795      |     130634      
      10  | 29:01.60 |    3:10.03   |      130635      |     144887      
      11  | 32:11.63 |    2:17.48   |      144888      |     155210      
      12  | 34:29.36 |    2:45.03   |      155211      |     167588      
      13  | 37:14.39 |    3:46.39   |      167589      |     184577      
      14  | 41:01.03 |    5:05.70   |      184578      |     207522      
      15  | 46:06.73 |    3:23.02   |      207523      |     222749      
      16  | 49:30.00 |    2:41.49   |      222750      |     234873      
      17  | 52:11.49 |    2:46.12   |      234874      |     247335      
      18  | 54:57.61 |    2:42.46   |      247336      |     259531      


Характеристики диапазона извлечения и сообщения об ошибках

Выбранный диапазон

     Имя файла F:\EAC\A.C.Jobim - One Note Samba\A.C.Jobim - One Note Samba.wav

     Пиковый уровень 99.8 %
     Качество диапазона 99.9 %
     CRC копии A78D7A5B
     Копирование... OK

Ошибок не произошло

 
AccurateRip: сводка
 
Трек  1  точное извлечение (доверие 3)  [9B8E8463]
Трек  2  точное извлечение (доверие 3)  [FFD6ED3C]
Трек  3  точное извлечение (доверие 3)  [6D064420]
Трек  4  точное извлечение (доверие 3)  [34DFE3BA]
Трек  5  точное извлечение (доверие 3)  [EFCB5290]
Трек  6  точное извлечение (доверие 3)  [B0E9E112]
Трек  7  точное извлечение (доверие 3)  [9B3B3717]
Трек  8  точное извлечение (доверие 3)  [E6F54798]
Трек  9  точное извлечение (доверие 3)  [AC6A6E82]
Трек 10  точное извлечение (доверие 3)  [3ACB480B]
Трек 11  точное извлечение (доверие 3)  [88EA9DCE]
Трек 12  точное извлечение (доверие 3)  [2AD351CF]
Трек 13  точное извлечение (доверие 3)  [6EF2130F]
Трек 14  точное извлечение (доверие 3)  [A4B6F2C6]
Трек 15  точное извлечение (доверие 3)  [149E114F]
Трек 16  точное извлечение (доверие 3)  [E61D5021]
Трек 17  точное извлечение (доверие 3)  [8BA642EF]
Трек 18  точное извлечение (доверие 3)  [D281A882]
 
Все треки извлечены точно

Конец отчёта
Содержание индексной карты (.CUE)
REM GENRE Jazz
REM DATE 2006
REM DISCID 080D8412
REM COMMENT "ExactAudioCopy v0.99pb5"
CATALOG 0602498438695
PERFORMER "Antonio Carlos Jobim"
TITLE "One Note Samba"
FILE "Antonio Carlos Jobim - One Note Samba.flac" WAVE
  TRACK 01 AUDIO
    TITLE "Samba Do Soho"
    PERFORMER "Antonio Carlos Jobim"
    ISRC USPR38682018
    INDEX 01 00:00:00
  TRACK 02 AUDIO
    TITLE "Remember"
    PERFORMER "Antonio Carlos Jobim"
    ISRC USAM17000040
    INDEX 00 02:59:74
    INDEX 01 03:02:14
  TRACK 03 AUDIO
    TITLE "Look To The Sky"
    PERFORMER "Antonio Carlos Jobim"
    ISRC USWWW0128917
    INDEX 00 07:02:37
    INDEX 01 07:05:00
  TRACK 04 AUDIO
    TITLE "The Girl From Ipanema"
    PERFORMER "Antonio Carlos Jobim"
    ISRC USPR36307072
    INDEX 00 09:23:29
    INDEX 01 09:25:12
  TRACK 05 AUDIO
    TITLE "Chovendo Na Roseira"
    PERFORMER "Antonio Carlos Jobim"
    ISRC USPR37400057
    INDEX 00 12:07:05
    INDEX 01 12:08:13
  TRACK 06 AUDIO
    TITLE "Wave"
    PERFORMER "Antonio Carlos Jobim"
    ISRC USWWW0128914
    INDEX 00 15:19:45
    INDEX 01 15:21:26
  TRACK 07 AUDIO
    TITLE "Takatanga"
    PERFORMER "Antonio Carlos Jobim"
    ISRC USAM17000042
    INDEX 00 18:13:47
    INDEX 01 18:15:01
  TRACK 08 AUDIO
    TITLE "Isabella"
    PERFORMER "Antonio Carlos Jobim"
    ISRC USPR38682017
    INDEX 00 22:56:64
    INDEX 01 22:58:62
  TRACK 09 AUDIO
    TITLE "Vivo Sonhando (Dreamer)"
    PERFORMER "Antonio Carlos Jobim"
    ISRC USF096325420
    INDEX 00 26:22:35
    INDEX 01 26:23:70
  TRACK 10 AUDIO
    TITLE "Antigua"
    PERFORMER "Antonio Carlos Jobim"
    ISRC USWWW0128923
    INDEX 00 29:00:01
    INDEX 01 29:01:60
  TRACK 11 AUDIO
    TITLE "Samba De Uma Nota So (One Note Samba)"
    PERFORMER "Antonio Carlos Jobim"
    ISRC BRMCA6400213
    INDEX 00 32:09:70
    INDEX 01 32:11:63
  TRACK 12 AUDIO
    TITLE "Caribe"
    PERFORMER "Antonio Carlos Jobim"
    ISRC USAM17000043
    INDEX 00 34:26:44
    INDEX 01 34:29:36
  TRACK 13 AUDIO
    TITLE "Anos Dourados"
    PERFORMER "Antonio Carlos Jobim"
    ISRC USPR38682020
    INDEX 00 37:12:04
    INDEX 01 37:14:39
  TRACK 14 AUDIO
    TITLE "The Red Blouse"
    PERFORMER "Antonio Carlos Jobim"
    ISRC USWWW0128916
    INDEX 00 40:58:52
    INDEX 01 41:01:03
  TRACK 15 AUDIO
    TITLE "O Morro Nao Tem Vez"
    PERFORMER "Antonio Carlos Jobim"
    ISRC BRMCA6400211
    INDEX 00 46:04:45
    INDEX 01 46:06:73
  TRACK 16 AUDIO
    TITLE "Triste"
    PERFORMER "Antonio Carlos Jobim"
    ISRC BRMCA7400157
    INDEX 00 49:28:04
    INDEX 01 49:30:00
  TRACK 17 AUDIO
    TITLE "Desafinado"
    PERFORMER "Antonio Carlos Jobim"
    ISRC BRMCA6400217
    INDEX 00 52:09:50
    INDEX 01 52:11:49
  TRACK 18 AUDIO
    TITLE "Lamento"
    PERFORMER "Antonio Carlos Jobim"
    ISRC USWWW0137141
    INDEX 00 54:56:02
    INDEX 01 54:57:61
Лог проверки качества
[CUETools log; Date: 05.01.2013 18:43:41; Version: 2.0.9]
[CTDB TOCID: eUfEV32WOk8_qszCJbSsNxboy2s-] found.
        [ CTDBID ] Status
        [7efc991d] (1/1) Accurately ripped
[AccurateRip ID: 0025b3e9-01f7fe84-080d8412] found.
Track   [ CRC    ] Status
 01     [9b8e8463] (3/8) Accurately ripped
 02     [ffd6ed3c] (3/8) Accurately ripped
 03     [6d064420] (3/8) Accurately ripped
 04     [34dfe3ba] (3/8) Accurately ripped
 05     [efcb5290] (3/8) Accurately ripped
 06     [b0e9e112] (3/8) Accurately ripped
 07     [9b3b3717] (3/8) Accurately ripped
 08     [e6f54798] (3/8) Accurately ripped
 09     [ac6a6e82] (3/8) Accurately ripped
 10     [3acb480b] (3/8) Accurately ripped
 11     [88ea9dce] (3/8) Accurately ripped
 12     [2ad351cf] (3/8) Accurately ripped
 13     [6ef2130f] (3/8) Accurately ripped
 14     [a4b6f2c6] (3/8) Accurately ripped
 15     [149e114f] (3/8) Accurately ripped
 16     [e61d5021] (3/8) Accurately ripped
 17     [8ba642ef] (3/8) Accurately ripped
 18     [d281a882] (3/8) Accurately ripped
Offsetted by -12:
 01     [1f8cc5ab] (3/8) Accurately ripped
 02     [c277a95c] (3/8) Accurately ripped
 03     [476d2634] (3/8) Accurately ripped
 04     [47d2192e] (3/8) Accurately ripped
 05     [f8aa2a8c] (3/8) Accurately ripped
 06     [1a02832e] (3/8) Accurately ripped
 07     [e77aabfb] (3/8) Accurately ripped
 08     [89254780] (3/8) Accurately ripped
 09     [4958a362] (3/8) Accurately ripped
 10     [24567247] (3/8) Accurately ripped
 11     [8137be56] (3/8) Accurately ripped
 12     [21a4e89b] (3/8) Accurately ripped
 13     [9f7a681f] (3/8) Accurately ripped
 14     [61c951dc] (3/8) Accurately ripped
 15     [49e316fd] (3/8) Accurately ripped
 16     [48227587] (3/8) Accurately ripped
 17     [fa8ea6f1] (3/8) Accurately ripped
 18     [fc143c16] (3/8) Accurately ripped

Track Peak [ CRC32  ] [W/O NULL] [  LOG   ]
 --   99,8 [A78D7A5B] [D45A7EAD]   CRC32   
 01   98,2 [FC44884B] [B449068F]           
 02   99,8 [00F70522] [BC510325]           
 03   73,8 [401C475F] [12BCF724]           
 04   93,3 [CE4F41EB] [6E791B45]           
 05   64,7 [5BB27E22] [BC4E54F9]           
 06   69,1 [5FEC54B6] [BC2B01D7]           
 07   99,8 [DAC03235] [DC3FE098]           
 08   64,1 [2DDD8F0E] [C80C4AC2]           
 09   79,0 [F8CD7291] [B6648967]           
 10   58,5 [3636CF93] [618E7380]           
 11   99,8 [A7D5A16A] [0C1ABD22]           
 12   73,5 [8F508BFD] [59D8EF01]           
 13   65,2 [EEC07FB8] [E70F23DC]           
 14   80,1 [A12B5CB0] [44CFF1EB]           
 15   95,6 [39CC6C91] [D0E6DB7D]           
 16   80,1 [16DEC242] [89FB92CE]           
 17   93,1 [009344E4] [7A02E57A]           
 18   74,5 [F7773E3C] [01D5711F]           
Приватный:
Нет (DHT включён)
Размер:
333.74 Мб (349,950,960 байт) » файлов: 13
Участники:
22 раздают, 0 качают (22 участников всего)
Внешние участники:
--- [ Обновить ]
Никого нет на раздаче - пишите личное сообщение M0p94ok
No seeders - write personal message to M0p94ok
09:20
242
Нет комментариев. Ваш будет первым!