Поиск

2005 Márcio Faraco - Com Tradicao

2005 Márcio Faraco - Com Tradicao
Страна-производитель диска (релиза):
Russia
Дата издания диска:
2005
Номер по каталогу:
ZZ-05GP0001788
Носитель:
CD
Битрейт аудио:
lossless
Аудиокодек:
FLAC (*.flac)
Тип рипа:
tracks+.cue
Время звучания:
49:06
Наличие сканов:
  • да
Релизёр (источник):
M0p94ok
Треклист:
01. Apesar Da Escuridão (3:42)
02. Cidade (3:42)
03. De Jorginho (3:08)
04. Meu Amigo (4:06)
05. Com Tradição (4:59)
06. Boa Viagem (4:47)
07. Dona Déborah (3:15)
08. Oriente (5:15)
09. Chuva de Vidro (3:50)
10. Tempestades de Verão (4:10)
11. Os Olhos de uma Mulher (4:29)
12. Mundo Oval (3:43)                                       
Exact Audio Copy V1.1 from 23. June 2015
Отчёт EAC об извлечении, выполненном 2. июня 2017, 15:35
Márcio Faraco / Com Tradição
Дисковод: HL-DT-STBD-RE BE12LU30 Adapter: 1 ID: 1
Режим чтения : Достоверность
Использование точного потока : Да
Отключение кэша аудио : Да
Использование указателей C2 : Нет
Коррекция смещения при чтении : 667
Способность читать области Lead-in и Lead-out : Нет
Заполнение пропущенных сэмплов тишиной : Да
Удаление блоков с тишиной в начале и конце : Нет
При вычислениях CRC использовались нулевые сэмплы : Да
Интерфейс : Встроенный Win32-интерфейс для Win NT/2000
Обработка зазоров : Добавлено к предыдущему треку
Выходной формат : Пользовательский кодировщик
Выбранный битрейт : 896 kBit/s
Качество : Высокий
Добавление ID3-тега : Нет
Утилита сжатия : C:\Program Files (x86)\Exact Audio Copy\Flac\flac.exe
Дополнительные параметры : -V -8 -T "Genre=%genre%" -T "Artist=%artist%" -T "Title=%title%" -T "Album=%albumtitle%" -T "Date=%year%" -T "Tracknumber=%tracknr%" -T "Comment=%comment%" %source%
TOC извлечённого CD Трек | Старт | Длительность | Начальный сектор | Конечный сектор --------------------------------------------------------------------- 1 | 0:00.00 | 3:42.70 | 0 | 16719 2 | 3:42.70 | 3:42.15 | 16720 | 33384 3 | 7:25.10 | 3:08.71 | 33385 | 47555 4 | 10:34.06 | 4:06.14 | 47556 | 66019 5 | 14:40.20 | 4:59.21 | 66020 | 88465 6 | 19:39.41 | 4:47.56 | 88466 | 110046 7 | 24:27.22 | 3:15.47 | 110047 | 124718 8 | 27:42.69 | 5:15.24 | 124719 | 148367 9 | 32:58.18 | 3:50.52 | 148368 | 165669 10 | 36:48.70 | 4:10.11 | 165670 | 184430 11 | 40:59.06 | 4:29.03 | 184431 | 204608 12 | 45:28.09 | 3:43.49 | 204609 | 221382
Трек 1 Имя файла D:\Music\2005 Marcio Faraco - Com Tradicao\01. Márcio Faraco - Apesar de Escuridão.wav Длина предзазора 0:00:02.00 Пиковый уровень 98.5 % Скорость извлечения 1.2 X Качество трека 100.0 % CRC теста 356D82AA CRC копии 356D82AA Точность не определена (достоверность 7) [A5A7DBC7], AccurateRip вернул [9C675697] (AR v2) Копирование... OK
Трек 2 Имя файла D:\Music\2005 Marcio Faraco - Com Tradicao\02. Márcio Faraco - Cidade.wav Длина предзазора 0:00:01.15 Пиковый уровень 97.1 % Скорость извлечения 1.4 X Качество трека 100.0 % CRC теста 29C97CFE CRC копии 29C97CFE Точность не определена (достоверность 7) [464F38B1], AccurateRip вернул [C8DB3F54] (AR v2) Копирование... OK
Трек 3 Имя файла D:\Music\2005 Marcio Faraco - Com Tradicao\03. Márcio Faraco - De Jorginho.wav Пиковый уровень 99.4 % Скорость извлечения 1.4 X Качество трека 100.0 % CRC теста 922C3D1B CRC копии 922C3D1B Точность не определена (достоверность 7) [31B33E00], AccurateRip вернул [E289D00F] (AR v2) Копирование... OK
Трек 4 Имя файла D:\Music\2005 Marcio Faraco - Com Tradicao\04. Márcio Faraco - Meu Amigo.wav Длина предзазора 0:00:00.57 Пиковый уровень 95.8 % Скорость извлечения 1.6 X Качество трека 100.0 % CRC теста EA794F62 CRC копии EA794F62 Точность не определена (достоверность 7) [D6EEB5B4], AccurateRip вернул [F84417DE] (AR v2) Копирование... OK
Трек 5 Имя файла D:\Music\2005 Marcio Faraco - Com Tradicao\05. Márcio Faraco - Com Tradição.wav Длина предзазора 0:00:00.68 Пиковый уровень 78.5 % Скорость извлечения 1.8 X Качество трека 100.0 % CRC теста 87835EDC CRC копии 87835EDC Точность не определена (достоверность 7) [17E18312], AccurateRip вернул [0A7C6C1B] (AR v2) Копирование... OK
Трек 6 Имя файла D:\Music\2005 Marcio Faraco - Com Tradicao\06. Márcio Faraco - Boa Viagem.wav Длина предзазора 0:00:02.46 Пиковый уровень 98.4 % Скорость извлечения 1.9 X Качество трека 100.0 % CRC теста DB583D9E CRC копии DB583D9E Точность не определена (достоверность 7) [3CBBB395], AccurateRip вернул [5B4B39D6] (AR v2) Копирование... OK
Трек 7 Имя файла D:\Music\2005 Marcio Faraco - Com Tradicao\07. Márcio Faraco - Dona Déborah.wav Длина предзазора 0:00:00.59 Пиковый уровень 75.0 % Скорость извлечения 1.9 X Качество трека 100.0 % CRC теста 10C0EDBA CRC копии 10C0EDBA Точность не определена (достоверность 7) [1452B330], AccurateRip вернул [228DE34C] (AR v2) Копирование... OK
Трек 8 Имя файла D:\Music\2005 Marcio Faraco - Com Tradicao\08. Márcio Faraco - Oriente.wav Длина предзазора 0:00:02.24 Пиковый уровень 97.2 % Скорость извлечения 2.1 X Качество трека 100.0 % CRC теста 26EB1943 CRC копии 26EB1943 Точность не определена (достоверность 7) [9DD64097], AccurateRip вернул [CC1B4B02] (AR v2) Копирование... OK
Трек 9 Имя файла D:\Music\2005 Marcio Faraco - Com Tradicao\09. Márcio Faraco - Chuva de Vidro.wav Длина предзазора 0:00:00.21 Пиковый уровень 98.7 % Скорость извлечения 2.2 X Качество трека 100.0 % CRC теста EE33BDA8 CRC копии EE33BDA8 Точность не определена (достоверность 7) [469DC92A], AccurateRip вернул [BDE13F68] (AR v2) Копирование... OK
Трек 10 Имя файла D:\Music\2005 Marcio Faraco - Com Tradicao\10. Márcio Faraco - Tempestades de Verão.wav Длина предзазора 0:00:00.66 Пиковый уровень 97.3 % Скорость извлечения 2.3 X Качество трека 100.0 % CRC теста 1244D8FC CRC копии 1244D8FC Точность не определена (достоверность 7) [C198AA09], AccurateRip вернул [3382763F] (AR v2) Копирование... OK
Трек 11 Имя файла D:\Music\2005 Marcio Faraco - Com Tradicao\11. Márcio Faraco - Os olhos de uma mulher.wav Длина предзазора 0:00:00.22 Пиковый уровень 97.8 % Скорость извлечения 2.4 X Качество трека 100.0 % CRC теста 7CAB331B CRC копии 7CAB331B Точность не определена (достоверность 7) [6FF05A23], AccurateRip вернул [16D6F65F] (AR v2) Копирование... OK
Трек 12 Имя файла D:\Music\2005 Marcio Faraco - Com Tradicao\12. Márcio Faraco - Mundo Oval.wav Длина предзазора 0:00:00.73 Пиковый уровень 98.1 % Скорость извлечения 2.4 X Качество трека 100.0 % CRC теста C623C33C CRC копии C623C33C Точность не определена (достоверность 7) [DACD795E], AccurateRip вернул [DE9B6372] (AR v2) Копирование... OK
Ни один трек не прошёл проверки на точность
В вашей базе может быть иной вариант штамповки диска
Ошибок не произошло
Конец отчёта
---- CUETools DB Plugin V2.1.6
[CTDB TOCID: xspkYR6Ut5Rd6E5pQB_G1CjjzZ4-] found
Submit result: already submitted
Track | CTDB Status 1 | (15/15) Accurately ripped 2 | (15/15) Accurately ripped 3 | (15/15) Accurately ripped 4 | (15/15) Accurately ripped 5 | (15/15) Accurately ripped 6 | (15/15) Accurately ripped 7 | (15/15) Accurately ripped 8 | (15/15) Accurately ripped 9 | (15/15) Accurately ripped 10 | (15/15) Accurately ripped 11 | (15/15) Accurately ripped 12 | (15/15) Accurately ripped
==== Контрольная сумма отчёта 4A880589CD4F4F4797B3CC065F997F1FEE52AB57C49AAD67BAB992FA7BF0A440 ====
REM GENRE Jazz
REM DATE 2005
REM DISCID 9A0B870C
REM COMMENT "ExactAudioCopy v1.1"
PERFORMER "Marcio Faraco"
TITLE "Com Tradicao"
FILE "01. Márcio Faraco - Apesar de Escuridão.flac" WAVE TRACK 01 AUDIO TITLE "Apesar de Escuridao" PERFORMER "Marcio Faraco" INDEX 01 00:00:00 TRACK 02 AUDIO TITLE "Cidade" PERFORMER "Marcio Faraco" INDEX 00 03:41:55
FILE "02. Márcio Faraco - Cidade.flac" WAVE INDEX 01 00:00:00
FILE "03. Márcio Faraco - De Jorginho.flac" WAVE TRACK 03 AUDIO TITLE "De Jorginho" PERFORMER "Marcio Faraco" INDEX 01 00:00:00 TRACK 04 AUDIO TITLE "Meu Amigo" PERFORMER "Marcio Faraco" INDEX 00 03:08:14
FILE "04. Márcio Faraco - Meu Amigo.flac" WAVE INDEX 01 00:00:00 TRACK 05 AUDIO TITLE "Com Tradicao" PERFORMER "Marcio Faraco" INDEX 00 04:05:21
FILE "05. Márcio Faraco - Com Tradição.flac" WAVE INDEX 01 00:00:00 TRACK 06 AUDIO TITLE "Boa Viagem" PERFORMER "Marcio Faraco" INDEX 00 04:56:50
FILE "06. Márcio Faraco - Boa Viagem.flac" WAVE INDEX 01 00:00:00 TRACK 07 AUDIO TITLE "Dona Deborah" PERFORMER "Marcio Faraco" INDEX 00 04:46:72
FILE "07. Márcio Faraco - Dona Déborah.flac" WAVE INDEX 01 00:00:00 TRACK 08 AUDIO TITLE "Oriente" PERFORMER "Marcio Faraco" INDEX 00 03:13:23
FILE "08. Márcio Faraco - Oriente.flac" WAVE INDEX 01 00:00:00 TRACK 09 AUDIO TITLE "Chuva de Vidro" PERFORMER "Marcio Faraco" INDEX 00 05:15:03
FILE "09. Márcio Faraco - Chuva de Vidro.flac" WAVE INDEX 01 00:00:00 TRACK 10 AUDIO TITLE "Tempestades de Verao" PERFORMER "Marcio Faraco" INDEX 00 03:49:61
FILE "10. Márcio Faraco - Tempestades de Verão.flac" WAVE INDEX 01 00:00:00 TRACK 11 AUDIO TITLE "Os olhos de uma mulher" PERFORMER "Marcio Faraco" INDEX 00 04:09:64
FILE "11. Márcio Faraco - Os olhos de uma mulher.flac" WAVE INDEX 01 00:00:00 TRACK 12 AUDIO TITLE "Mundo Oval" PERFORMER "Marcio Faraco" INDEX 00 04:28:05
FILE "12. Márcio Faraco - Mundo Oval.flac" WAVE INDEX 01 00:00:00
<spoiler title="CUETools log">[CUETools log; Date: 02.06.2017 15:39:04; Version: 2.1.5]
HDCD: peak extend: yes, transient filter: none, gain: none
[CTDB TOCID: xspkYR6Ut5Rd6E5pQB_G1CjjzZ4-] found. [ CTDBID ] Status [6881182f] (15/15) Accurately ripped
Track | CTDB Status 1 | (15/15) Accurately ripped 2 | (15/15) Accurately ripped 3 | (15/15) Accurately ripped 4 | (15/15) Accurately ripped 5 | (15/15) Accurately ripped 6 | (15/15) Accurately ripped 7 | (15/15) Accurately ripped 8 | (15/15) Accurately ripped 9 | (15/15) Accurately ripped 10 | (15/15) Accurately ripped 11 | (15/15) Accurately ripped 12 | (15/15) Accurately ripped
[AccurateRip ID: 0015892e-00cb0bd5-9a0b870c] found.
Track [ CRC | V2 ] Status 01 [a3e9a2e6|a5a7dbc7] (00+00/14) No match 02 [ff8e6ffc|464f38b1] (00+00/14) No match 03 [2e7ee22c|31b33e00] (00+00/14) No match 04 [bd8acb16|d6eeb5b4] (00+00/14) No match 05 [ec1bc97c|17e18312] (00+00/14) No match 06 [8c26109f|3cbbb395] (00+00/14) No match 07 [6e493ce3|1452b330] (00+00/14) No match 08 [35d15b24|9dd64097] (00+00/14) No match 09 [1bf570b6|469dc92a] (00+00/14) No match 10 [a35702ee|c198aa09] (00+00/14) No match 11 [b1d11a3e|6ff05a23] (00+00/14) No match 12 [27f7c6db|dacd795e] (00+00/14) No match
Offsetted by 18: 01 [9e0d5eba] (03/14) Accurately ripped 02 [a5ee9cd2] (03/14) Accurately ripped 03 [c7cd94f4] (03/14) Accurately ripped 04 [1532b862] (03/14) Accurately ripped 05 [eb066468] (03/14) Accurately ripped 06 [cd697ddd] (03/14) Accurately ripped 07 [66e78e8f] (03/14) Accurately ripped 08 [0e8eca4e] (03/14) Accurately ripped 09 [e6e478ae] (03/14) Accurately ripped 10 [19d29e80] (03/14) Accurately ripped 11 [14875a78] (03/14) Accurately ripped 12 [8f51bbae] (03/14) Accurately ripped
Offsetted by 664: 01 [59f35e56] (04/14) Accurately ripped 02 [ec3978b3] (04/14) Accurately ripped 03 [82f4cb2d] (04/14) Accurately ripped 04 [b4681926] (04/14) Accurately ripped 05 [e094c70c] (04/14) Accurately ripped 06 [9e4f23c7] (04/14) Accurately ripped 07 [25197373] (04/14) Accurately ripped 08 [711d5fdc] (04/14) Accurately ripped 09 [59f54156] (04/14) Accurately ripped 10 [eeeddf86] (04/14) Accurately ripped 11 [4085e9b6] (04/14) Accurately ripped 12 [031c1cfb] (04/14) Accurately ripped
Track Peak [ CRC32 ] [W/O NULL] [ LOG ] -- 99,4 [FD242D75] [6A9EF133] 01 98,5 [356D82AA] [590282B9] CRC32 02 97,1 [29C97CFE] [52811353] CRC32 03 99,4 [922C3D1B] [90D8E931] CRC32 04 95,8 [EA794F62] [FC363DA3] CRC32 05 78,5 [87835EDC] [86C7E3E0] CRC32 06 98,4 [DB583D9E] [14D60206] CRC32 07 75,0 [10C0EDBA] [82609C7D] CRC32 08 97,2 [26EB1943] [99A8C399] CRC32 09 98,7 [EE33BDA8] [4C944751] CRC32 10 97,3 [1244D8FC] [42AFA86E] CRC32 11 97,8 [7CAB331B] [5B61F07F] CRC32 12 98,1 [C623C33C] [351AA87B] CRC32 </spoiler>
Приватный:
Нет (DHT включён)
Размер:
302.32 Мб (317,003,968 байт) » файлов: 23
Участники:
1 раздают, 0 качают (1 участников всего)
Внешние участники:
Нет внешних трекеров [ Обновить ]
Скорость:
Торрент не зарегистрирован на трекере
16:18
84
RSS
Нет комментариев. Ваш будет первым!