Вы используете незарегистрированную версию компонента "Вкладки"!

Поиск

2005 Johnny Hodges & His Orchestra - 1951-1952 {The Chronological Classics CC1389} [CD]

2005 Johnny Hodges & His Orchestra - 1951-1952 {The Chronological Classics CC1389} [CD]
Стили:
Дата записи диска:
28 февраля 1951 - 17 июля 1952
Издатель (лейбл):
Номер по каталогу:
CC1389
Доп. инфо:

Носитель: CD
Страна-производитель диска (релиза): Франция
Год издания: 2005
Издатель (лейбл): Classics
Номер по каталогу: 1389
Страна исполнителя (группы): США
Аудиокодек: FLAC (*.flac)
Тип рипа: tracks+.cue
Битрейт аудио: lossless
Продолжительность: 01:14:25
Источник: gregorious
Наличие сканов в содержимом раздачи: нет

Лог создания рипа
X Lossless Decoder version 20181019 (151.1)

XLD extraction logfile from 2019-01-31 12:37:54 -0800

Johnny Hodges And His Orchestra / 1951-1952

Used drive : hp DVDRAM GT20L (revision DC05)
Media type : Pressed CD

Ripper mode             : XLD Secure Ripper
Disable audio cache     : OK for the drive with a cache less than 1375KiB
Make use of C2 pointers : NO
Read offset correction  : 667
Max retry count         : 100
Gap status              : Analyzed, Appended (except HTOA)

TOC of the extracted CD
     Track |   Start  |  Length  | Start sector | End sector
    ---------------------------------------------------------
        1  | 00:00:00 | 03:05:17 |         0    |    13891
        2  | 03:05:17 | 02:59:22 |     13892    |    27338
        3  | 06:04:39 | 02:56:11 |     27339    |    40549
        4  | 09:00:50 | 02:50:01 |     40550    |    53300
        5  | 11:50:51 | 02:53:26 |     53301    |    66301
        6  | 14:44:02 | 03:11:58 |     66302    |    80684
        7  | 17:55:60 | 03:05:58 |     80685    |    94617
        8  | 21:01:43 | 03:16:00 |     94618    |   109317
        9  | 24:17:43 | 03:04:13 |    109318    |   123130
       10  | 27:21:56 | 03:11:18 |    123131    |   137473
       11  | 30:32:74 | 03:04:43 |    137474    |   151316
       12  | 33:37:42 | 03:05:70 |    151317    |   165261
       13  | 36:43:37 | 03:19:42 |    165262    |   180228
       14  | 40:03:04 | 03:21:37 |    180229    |   195340
       15  | 43:24:41 | 02:50:26 |    195341    |   208116
       16  | 46:14:67 | 03:06:08 |    208117    |   222074
       17  | 49:21:00 | 03:21:56 |    222075    |   237205
       18  | 52:42:56 | 06:01:73 |    237206    |   264353
       19  | 58:44:54 | 06:09:16 |    264354    |   292044
       20  | 64:53:70 | 03:02:46 |    292045    |   305740
       21  | 67:56:41 | 03:04:71 |    305741    |   319611
       22  | 71:01:37 | 03:23:44 |    319612    |   334880

AccurateRip Summary (DiscID: 00374786-038126e0-4a117116)
    Track 01 : OK (v2, confidence 2/2)
    Track 02 : OK (v2, confidence 2/2)
    Track 03 : OK (v2, confidence 2/2)
    Track 04 : OK (v2, confidence 2/2)
    Track 05 : OK (v2, confidence 2/2)
    Track 06 : OK (v2, confidence 2/2)
    Track 07 : OK (v2, confidence 2/2)
    Track 08 : OK (v2, confidence 2/2)
    Track 09 : OK (v2, confidence 2/2)
    Track 10 : OK (v2, confidence 2/2)
    Track 11 : OK (v2, confidence 2/2)
    Track 12 : OK (v2, confidence 2/2)
    Track 13 : OK (v2, confidence 2/2)
    Track 14 : OK (v2, confidence 2/2)
    Track 15 : OK (v2, confidence 2/2)
    Track 16 : OK (v2, confidence 2/2)
    Track 17 : OK (v2, confidence 2/2)
    Track 18 : OK (v2, confidence 2/2)
    Track 19 : OK (v2, confidence 2/2)
    Track 20 : OK (v2, confidence 2/2)
    Track 21 : OK (v2, confidence 2/2)
    Track 22 : OK (v2, confidence 2/2)
        ->All tracks accurately ripped.

All Tracks
    Album gain               : -3.09 dB
    Peak                     : 0.989685
    Statistics
        Read error                           : 0
        Jitter error (maybe fixed)           : 0
        Retry sector count                   : 0
        Damaged sector count                 : 0

Track 01
    Filename : /rips/Johnny Hodges And His Orchestra - 1951-1952 (2005) [FLAC]/01 Good Queen Bess.flac
    Pre-gap length : 00:02:00

    Track gain               : -1.64 dB
    Peak                     : 0.831635
    CRC32 hash (test run)    : CC33BB96
    CRC32 hash               : CC33BB96
    CRC32 hash (skip zero)   : 2F07E75C
    AccurateRip v1 signature : C1D0DBAA
    AccurateRip v2 signature : 7769EA45
        ->Accurately ripped (v2, confidence 2/2)
    Statistics
        Read error                           : 0
        Jitter error (maybe fixed)           : 0
        Retry sector count                   : 0
        Damaged sector count                 : 0

Track 02
    Filename : /rips/Johnny Hodges And His Orchestra - 1951-1952 (2005) [FLAC]/02 Jeep's Blues.flac
    Pre-gap length : 00:03:10

    Track gain               : -1.21 dB
    Peak                     : 0.671051
    CRC32 hash (test run)    : 9FA2086D
    CRC32 hash               : 9FA2086D
    CRC32 hash (skip zero)   : 20072F3E
    AccurateRip v1 signature : E5AA2492
    AccurateRip v2 signature : 8FC4C720
        ->Accurately ripped (v2, confidence 2/2)
    Statistics
        Read error                           : 0
        Jitter error (maybe fixed)           : 0
        Retry sector count                   : 0
        Damaged sector count                 : 0

Track 03
    Filename : /rips/Johnny Hodges And His Orchestra - 1951-1952 (2005) [FLAC]/03 Solitude.flac
    Pre-gap length : 00:03:10

    Track gain               : -0.15 dB
    Peak                     : 0.742004
    CRC32 hash (test run)    : 83FDB5FD
    CRC32 hash               : 83FDB5FD
    CRC32 hash (skip zero)   : D6D4BCC5
    AccurateRip v1 signature : 2EC9D291
    AccurateRip v2 signature : 40017063
        ->Accurately ripped (v2, confidence 2/2)
    Statistics
        Read error                           : 0
        Jitter error (maybe fixed)           : 0
        Retry sector count                   : 0
        Damaged sector count                 : 0

Track 04
    Filename : /rips/Johnny Hodges And His Orchestra - 1951-1952 (2005) [FLAC]/04 The Jeep Is Jumping.flac
    Pre-gap length : 00:03:10

    Track gain               : -6.05 dB
    Peak                     : 0.989685
    CRC32 hash (test run)    : B2B2B13F
    CRC32 hash               : B2B2B13F
    CRC32 hash (skip zero)   : 9353F0E4
    AccurateRip v1 signature : 9AB3643D
    AccurateRip v2 signature : E8418DE0
        ->Accurately ripped (v2, confidence 2/2)
    Statistics
        Read error                           : 0
        Jitter error (maybe fixed)           : 0
        Retry sector count                   : 0
        Damaged sector count                 : 0

Track 05
    Filename : /rips/Johnny Hodges And His Orchestra - 1951-1952 (2005) [FLAC]/05 Castle Rock.flac
    Pre-gap length : 00:03:10

    Track gain               : -2.37 dB
    Peak                     : 0.832764
    CRC32 hash (test run)    : BEFE6685
    CRC32 hash               : BEFE6685
    CRC32 hash (skip zero)   : CB5A9946
    AccurateRip v1 signature : 294F5E33
    AccurateRip v2 signature : A0A82E8B
        ->Accurately ripped (v2, confidence 2/2)
    Statistics
        Read error                           : 0
        Jitter error (maybe fixed)           : 0
        Retry sector count                   : 0
        Damaged sector count                 : 0

Track 06
    Filename : /rips/Johnny Hodges And His Orchestra - 1951-1952 (2005) [FLAC]/06 Sophisticated Lady.flac
    Pre-gap length : 00:03:10

    Track gain               : -1.77 dB
    Peak                     : 0.748505
    CRC32 hash (test run)    : 0BF6A03B
    CRC32 hash               : 0BF6A03B
    CRC32 hash (skip zero)   : 7374BE1C
    AccurateRip v1 signature : D42E7127
    AccurateRip v2 signature : 8976C666
        ->Accurately ripped (v2, confidence 2/2)
    Statistics
        Read error                           : 0
        Jitter error (maybe fixed)           : 0
        Retry sector count                   : 0
        Damaged sector count                 : 0

Track 07
    Filename : /rips/Johnny Hodges And His Orchestra - 1951-1952 (2005) [FLAC]/07 Globe Trotter.flac
    Pre-gap length : 00:03:10

    Track gain               : -3.67 dB
    Peak                     : 0.835815
    CRC32 hash (test run)    : DFB4E4F1
    CRC32 hash               : DFB4E4F1
    CRC32 hash (skip zero)   : 297619F3
    AccurateRip v1 signature : 8AB44AA5
    AccurateRip v2 signature : B02876CE
        ->Accurately ripped (v2, confidence 2/2)
    Statistics
        Read error                           : 0
        Jitter error (maybe fixed)           : 0
        Retry sector count                   : 0
        Damaged sector count                 : 0

Track 08
    Filename : /rips/Johnny Hodges And His Orchestra - 1951-1952 (2005) [FLAC]/08 Gentle Breeze.flac
    Pre-gap length : 00:03:10

    Track gain               : -2.93 dB
    Peak                     : 0.835449
    CRC32 hash (test run)    : 73D7CA76
    CRC32 hash               : 73D7CA76
    CRC32 hash (skip zero)   : 398BF433
    AccurateRip v1 signature : 203AD235
    AccurateRip v2 signature : BDC19677
        ->Accurately ripped (v2, confidence 2/2)
    Statistics
        Read error                           : 0
        Jitter error (maybe fixed)           : 0
        Retry sector count                   : 0
        Damaged sector count                 : 0

Track 09
    Filename : /rips/Johnny Hodges And His Orchestra - 1951-1952 (2005) [FLAC]/09 Sideways.flac
    Pre-gap length : 00:03:10

    Track gain               : -4.10 dB
    Peak                     : 0.855408
    CRC32 hash (test run)    : D7570405
    CRC32 hash               : D7570405
    CRC32 hash (skip zero)   : D8B24E28
    AccurateRip v1 signature : D2FB8F05
    AccurateRip v2 signature : A9927528
        ->Accurately ripped (v2, confidence 2/2)
    Statistics
        Read error                           : 0
        Jitter error (maybe fixed)           : 0
        Retry sector count                   : 0
        Damaged sector count                 : 0

Track 10
    Filename : /rips/Johnny Hodges And His Orchestra - 1951-1952 (2005) [FLAC]/10 A Pound Of Blues.flac
    Pre-gap length : 00:03:10

    Track gain               : -3.12 dB
    Peak                     : 0.843750
    CRC32 hash (test run)    : 2D4F1202
    CRC32 hash               : 2D4F1202
    CRC32 hash (skip zero)   : 6147F384
    AccurateRip v1 signature : 357A14D2
    AccurateRip v2 signature : DABA8A65
        ->Accurately ripped (v2, confidence 2/2)
    Statistics
        Read error                           : 0
        Jitter error (maybe fixed)           : 0
        Retry sector count                   : 0
        Damaged sector count                 : 0

Track 11
    Filename : /rips/Johnny Hodges And His Orchestra - 1951-1952 (2005) [FLAC]/11 Wham.flac
    Pre-gap length : 00:03:10

    Track gain               : -2.65 dB
    Peak                     : 0.849884
    CRC32 hash (test run)    : 38299480
    CRC32 hash               : 38299480
    CRC32 hash (skip zero)   : A2393A19
    AccurateRip v1 signature : 9B1CAA35
    AccurateRip v2 signature : 8CD71AE8
        ->Accurately ripped (v2, confidence 2/2)
    Statistics
        Read error                           : 0
        Jitter error (maybe fixed)           : 0
        Retry sector count                   : 0
        Damaged sector count                 : 0

Track 12
    Filename : /rips/Johnny Hodges And His Orchestra - 1951-1952 (2005) [FLAC]/12 Who's Excited.flac
    Pre-gap length : 00:03:10

    Track gain               : -4.09 dB
    Peak                     : 0.843414
    CRC32 hash (test run)    : F328F4BD
    CRC32 hash               : F328F4BD
    CRC32 hash (skip zero)   : 6CFB0C04
    AccurateRip v1 signature : 1526EA8D
    AccurateRip v2 signature : 0672BB8D
        ->Accurately ripped (v2, confidence 2/2)
    Statistics
        Read error                           : 0
        Jitter error (maybe fixed)           : 0
        Retry sector count                   : 0
        Damaged sector count                 : 0

Track 13
    Filename : /rips/Johnny Hodges And His Orchestra - 1951-1952 (2005) [FLAC]/13 Sweeping The Blues Away.flac
    Pre-gap length : 00:03:10

    Track gain               : -2.77 dB
    Peak                     : 0.847748
    CRC32 hash (test run)    : A353CD4E
    CRC32 hash               : A353CD4E
    CRC32 hash (skip zero)   : 799E93EE
    AccurateRip v1 signature : E12896FE
    AccurateRip v2 signature : 35E46110
        ->Accurately ripped (v2, confidence 2/2)
    Statistics
        Read error                           : 0
        Jitter error (maybe fixed)           : 0
        Retry sector count                   : 0
        Damaged sector count                 : 0

Track 14
    Filename : /rips/Johnny Hodges And His Orchestra - 1951-1952 (2005) [FLAC]/14 Day Dream.flac
    Pre-gap length : 00:03:10

    Track gain               : -2.86 dB
    Peak                     : 0.855377
    CRC32 hash (test run)    : 0D560331
    CRC32 hash               : 0D560331
    CRC32 hash (skip zero)   : 42EA669A
    AccurateRip v1 signature : 5B0101E7
    AccurateRip v2 signature : CA0FA764
        ->Accurately ripped (v2, confidence 2/2)
    Statistics
        Read error                           : 0
        Jitter error (maybe fixed)           : 0
        Retry sector count                   : 0
        Damaged sector count                 : 0

Track 15
    Filename : /rips/Johnny Hodges And His Orchestra - 1951-1952 (2005) [FLAC]/15 Standing Room Only.flac
    Pre-gap length : 00:03:10

    Track gain               : -4.17 dB
    Peak                     : 0.855103
    CRC32 hash (test run)    : 069D4EEE
    CRC32 hash               : 069D4EEE
    CRC32 hash (skip zero)   : F78B9970
    AccurateRip v1 signature : A37967F3
    AccurateRip v2 signature : 3C1AA8F0
        ->Accurately ripped (v2, confidence 2/2)
    Statistics
        Read error                           : 0
        Jitter error (maybe fixed)           : 0
        Retry sector count                   : 0
        Damaged sector count                 : 0

Track 16
    Filename : /rips/Johnny Hodges And His Orchestra - 1951-1952 (2005) [FLAC]/16 Below The Azores.flac
    Pre-gap length : 00:03:10

    Track gain               : -3.52 dB
    Peak                     : 0.848328
    CRC32 hash (test run)    : F93A61A9
    CRC32 hash               : F93A61A9
    CRC32 hash (skip zero)   : 1152E4EF
    AccurateRip v1 signature : 02668F4A
    AccurateRip v2 signature : 5A42B5FD
        ->Accurately ripped (v2, confidence 2/2)
    Statistics
        Read error                           : 0
        Jitter error (maybe fixed)           : 0
        Retry sector count                   : 0
        Damaged sector count                 : 0

Track 17
    Filename : /rips/Johnny Hodges And His Orchestra - 1951-1952 (2005) [FLAC]/17 Tenderly.flac
    Pre-gap length : 00:03:10

    Track gain               : -0.99 dB
    Peak                     : 0.836060
    CRC32 hash (test run)    : 69849831
    CRC32 hash               : 69849831
    CRC32 hash (skip zero)   : 55B3695E
    AccurateRip v1 signature : 25FB64CC
    AccurateRip v2 signature : E0411426
        ->Accurately ripped (v2, confidence 2/2)
    Statistics
        Read error                           : 0
        Jitter error (maybe fixed)           : 0
        Retry sector count                   : 0
        Damaged sector count                 : 0

Track 18
    Filename : /rips/Johnny Hodges And His Orchestra - 1951-1952 (2005) [FLAC]/18 Sweet Georgia Brown.flac
    Pre-gap length : 00:03:10

    Track gain               : -2.90 dB
    Peak                     : 0.848145
    CRC32 hash (test run)    : C242D132
    CRC32 hash               : C242D132
    CRC32 hash (skip zero)   : 8CE70EE6
    AccurateRip v1 signature : 54CE9366
    AccurateRip v2 signature : 486D7976
        ->Accurately ripped (v2, confidence 2/2)
    Statistics
        Read error                           : 0
        Jitter error (maybe fixed)           : 0
        Retry sector count                   : 0
        Damaged sector count                 : 0

Track 19
    Filename : /rips/Johnny Hodges And His Orchestra - 1951-1952 (2005) [FLAC]/19 Duke's Blues.flac
    Pre-gap length : 00:03:10

    Track gain               : -2.93 dB
    Peak                     : 0.853271
    CRC32 hash (test run)    : 67210659
    CRC32 hash               : 67210659
    CRC32 hash (skip zero)   : FB42FBFE
    AccurateRip v1 signature : 45ECFAB4
    AccurateRip v2 signature : 7F739AF0
        ->Accurately ripped (v2, confidence 2/2)
    Statistics
        Read error                           : 0
        Jitter error (maybe fixed)           : 0
        Retry sector count                   : 0
        Damaged sector count                 : 0

Track 20
    Filename : /rips/Johnny Hodges And His Orchestra - 1951-1952 (2005) [FLAC]/20 Tea For Two.flac
    Pre-gap length : 00:03:10

    Track gain               : -3.14 dB
    Peak                     : 0.844940
    CRC32 hash (test run)    : D7E7085F
    CRC32 hash               : D7E7085F
    CRC32 hash (skip zero)   : E5F2586B
    AccurateRip v1 signature : 083FC1F0
    AccurateRip v2 signature : B5F78D9D
        ->Accurately ripped (v2, confidence 2/2)
    Statistics
        Read error                           : 0
        Jitter error (maybe fixed)           : 0
        Retry sector count                   : 0
        Damaged sector count                 : 0

Track 21
    Filename : /rips/Johnny Hodges And His Orchestra - 1951-1952 (2005) [FLAC]/21 This Is My Night To Love.flac
    Pre-gap length : 00:03:10

    Track gain               : -3.69 dB
    Peak                     : 0.828918
    CRC32 hash (test run)    : 6AC1B7B9
    CRC32 hash               : 6AC1B7B9
    CRC32 hash (skip zero)   : 9DEC8355
    AccurateRip v1 signature : 92A78543
    AccurateRip v2 signature : B30EF323
        ->Accurately ripped (v2, confidence 2/2)
    Statistics
        Read error                           : 0
        Jitter error (maybe fixed)           : 0
        Retry sector count                   : 0
        Damaged sector count                 : 0

Track 22
    Filename : /rips/Johnny Hodges And His Orchestra - 1951-1952 (2005) [FLAC]/22 What I'm Gotchere.flac
    Pre-gap length : 00:03:10

    Track gain               : -2.99 dB
    Peak                     : 0.849365
    CRC32 hash (test run)    : 23DF61A1
    CRC32 hash               : 23DF61A1
    CRC32 hash (skip zero)   : BE63AE00
    AccurateRip v1 signature : E54253BC
    AccurateRip v2 signature : 21B7A613
        ->Accurately ripped (v2, confidence 2/2)
    Statistics
        Read error                           : 0
        Jitter error (maybe fixed)           : 0
        Retry sector count                   : 0
        Damaged sector count                 : 0

No errors occurred

End of status report

-----BEGIN XLD SIGNATURE-----
9VLsymxJOnt.neumEG6fUbHlHDPN8zCPlUFGWzDmeQW0G_HyvsnLbMALzPhyVijklBdWhmeEAb4GoWMpMVN4OjcidCnlT49ceL4lk1C
-----END XLD SIGNATURE-----
Содержание индексной карты (.CUE)
TITLE "1951-1952"
PERFORMER "Johnny Hodges"
REM GENRE "Jazz"
REM DATE "2005"
REM DISCID 4A117116
REM REPLAYGAIN_ALBUM_GAIN -3.09 dB
REM REPLAYGAIN_ALBUM_PEAK 0.989685
FILE "01 - Good Queen Bess.flac" WAVE
  TRACK 01 AUDIO
    TITLE "Good Queen Bess"
    REM REPLAYGAIN_TRACK_GAIN -1.64 dB
    REM REPLAYGAIN_TRACK_PEAK 0.831635
    INDEX 01 00:00:00
  TRACK 02 AUDIO
    TITLE "Jeep's Blues"
    REM REPLAYGAIN_TRACK_GAIN -1.21 dB
    REM REPLAYGAIN_TRACK_PEAK 0.671051
    INDEX 00 03:02:07
FILE "02 - Jeep's Blues.flac" WAVE
    INDEX 01 00:00:00
  TRACK 03 AUDIO
    TITLE "Solitude"
    REM REPLAYGAIN_TRACK_GAIN -0.15 dB
    REM REPLAYGAIN_TRACK_PEAK 0.742004
    INDEX 00 02:56:12
FILE "03 - Solitude.flac" WAVE
    INDEX 01 00:00:00
  TRACK 04 AUDIO
    TITLE "The Jeep Is Jumping"
    REM REPLAYGAIN_TRACK_GAIN -6.05 dB
    REM REPLAYGAIN_TRACK_PEAK 0.989685
    INDEX 00 02:53:01
FILE "04 - The Jeep Is Jumping.flac" WAVE
    INDEX 01 00:00:00
  TRACK 05 AUDIO
    TITLE "Castle Rock"
    REM REPLAYGAIN_TRACK_GAIN -2.37 dB
    REM REPLAYGAIN_TRACK_PEAK 0.832764
    INDEX 00 02:46:66
FILE "05 - Castle Rock.flac" WAVE
    INDEX 01 00:00:00
  TRACK 06 AUDIO
    TITLE "Sophisticated Lady"
    REM REPLAYGAIN_TRACK_GAIN -1.77 dB
    REM REPLAYGAIN_TRACK_PEAK 0.748505
    INDEX 00 02:50:16
FILE "06 - Sophisticated Lady.flac" WAVE
    INDEX 01 00:00:00
  TRACK 07 AUDIO
    TITLE "Globe Trotter"
    REM REPLAYGAIN_TRACK_GAIN -3.67 dB
    REM REPLAYGAIN_TRACK_PEAK 0.835815
    INDEX 00 03:08:48
FILE "07 - Globe Trotter.flac" WAVE
    INDEX 01 00:00:00
  TRACK 08 AUDIO
    TITLE "Gentle Breeze"
    REM REPLAYGAIN_TRACK_GAIN -2.93 dB
    REM REPLAYGAIN_TRACK_PEAK 0.835449
    INDEX 00 03:02:48
FILE "08 - Gentle Breeze.flac" WAVE
    INDEX 01 00:00:00
  TRACK 09 AUDIO
    TITLE "Sideways"
    REM REPLAYGAIN_TRACK_GAIN -4.10 dB
    REM REPLAYGAIN_TRACK_PEAK 0.855408
    INDEX 00 03:12:65
FILE "09 - Sideways.flac" WAVE
    INDEX 01 00:00:00
  TRACK 10 AUDIO
    TITLE "A Pound of Blues"
    REM REPLAYGAIN_TRACK_GAIN -3.12 dB
    REM REPLAYGAIN_TRACK_PEAK 0.843750
    INDEX 00 03:01:03
FILE "10 - A Pound of Blues.flac" WAVE
    INDEX 01 00:00:00
  TRACK 11 AUDIO
    TITLE "Wham"
    REM REPLAYGAIN_TRACK_GAIN -2.65 dB
    REM REPLAYGAIN_TRACK_PEAK 0.849884
    INDEX 00 03:08:08
FILE "11 - Wham.flac" WAVE
    INDEX 01 00:00:00
  TRACK 12 AUDIO
    TITLE "Who's Excited"
    REM REPLAYGAIN_TRACK_GAIN -4.09 dB
    REM REPLAYGAIN_TRACK_PEAK 0.843414
    INDEX 00 03:01:33
FILE "12 - Who's Excited.flac" WAVE
    INDEX 01 00:00:00
  TRACK 13 AUDIO
    TITLE "Sweeping the Blues Away"
    REM REPLAYGAIN_TRACK_GAIN -2.77 dB
    REM REPLAYGAIN_TRACK_PEAK 0.847748
    INDEX 00 03:02:60
FILE "13 - Sweeping the Blues Away.flac" WAVE
    INDEX 01 00:00:00
  TRACK 14 AUDIO
    TITLE "Day Dream"
    REM REPLAYGAIN_TRACK_GAIN -2.86 dB
    REM REPLAYGAIN_TRACK_PEAK 0.855377
    INDEX 00 03:16:32
FILE "14 - Day Dream.flac" WAVE
    INDEX 01 00:00:00
  TRACK 15 AUDIO
    TITLE "Standing Room Only"
    REM REPLAYGAIN_TRACK_GAIN -4.17 dB
    REM REPLAYGAIN_TRACK_PEAK 0.855103
    INDEX 00 03:18:27
FILE "15 - Standing Room Only.flac" WAVE
    INDEX 01 00:00:00
  TRACK 16 AUDIO
    TITLE "Below the Azores"
    REM REPLAYGAIN_TRACK_GAIN -3.52 dB
    REM REPLAYGAIN_TRACK_PEAK 0.848328
    INDEX 00 02:47:16
FILE "16 - Below the Azores.flac" WAVE
    INDEX 01 00:00:00
  TRACK 17 AUDIO
    TITLE "Tenderly"
    REM REPLAYGAIN_TRACK_GAIN -0.99 dB
    REM REPLAYGAIN_TRACK_PEAK 0.836060
    INDEX 00 03:02:73
FILE "17 - Tenderly.flac" WAVE
    INDEX 01 00:00:00
  TRACK 18 AUDIO
    TITLE "Sweet Georgia Brown"
    REM REPLAYGAIN_TRACK_GAIN -2.90 dB
    REM REPLAYGAIN_TRACK_PEAK 0.848145
    INDEX 00 03:18:46
FILE "18 - Sweet Georgia Brown.flac" WAVE
    INDEX 01 00:00:00
  TRACK 19 AUDIO
    TITLE "Duke's Blues"
    REM REPLAYGAIN_TRACK_GAIN -2.93 dB
    REM REPLAYGAIN_TRACK_PEAK 0.853271
    INDEX 00 05:58:63
FILE "19 - Duke's Blues.flac" WAVE
    INDEX 01 00:00:00
  TRACK 20 AUDIO
    TITLE "Tea for Two"
    REM REPLAYGAIN_TRACK_GAIN -3.14 dB
    REM REPLAYGAIN_TRACK_PEAK 0.844940
    INDEX 00 06:06:06
FILE "20 - Tea for Two.flac" WAVE
    INDEX 01 00:00:00
  TRACK 21 AUDIO
    TITLE "This Is My Night to Love"
    REM REPLAYGAIN_TRACK_GAIN -3.69 dB
    REM REPLAYGAIN_TRACK_PEAK 0.828918
    INDEX 00 02:59:36
FILE "21 - This Is My Night to Love.flac" WAVE
    INDEX 01 00:00:00
  TRACK 22 AUDIO
    TITLE "What I'm Gotchere"
    REM REPLAYGAIN_TRACK_GAIN -2.99 dB
    REM REPLAYGAIN_TRACK_PEAK 0.849365
    INDEX 00 03:01:61
FILE "22 - What I'm Gotchere.flac" WAVE
    INDEX 01 00:00:00
Лог проверки качества
[CUETools log; Date: 01.02.2019 14:14:38; Version: 2.1.6]
[CTDB TOCID: I6A6vdM3g_uTv1ktI44kwxFvOO8-] found.
Track | CTDB Status
  1   | (1/1) Accurately ripped
  2   | (1/1) Accurately ripped
  3   | (1/1) Accurately ripped
  4   | (1/1) Accurately ripped
  5   | (1/1) Accurately ripped
  6   | (1/1) Accurately ripped
  7   | (1/1) Accurately ripped
  8   | (1/1) Accurately ripped
  9   | (1/1) Accurately ripped
 10   | (1/1) Accurately ripped
 11   | (1/1) Accurately ripped
 12   | (1/1) Accurately ripped
 13   | (1/1) Accurately ripped
 14   | (1/1) Accurately ripped
 15   | (1/1) Accurately ripped
 16   | (1/1) Accurately ripped
 17   | (1/1) Accurately ripped
 18   | (1/1) Accurately ripped
 19   | (1/1) Accurately ripped
 20   | (1/1) Accurately ripped
 21   | (1/1) Accurately ripped
 22   | (1/1) Accurately ripped
[AccurateRip ID: 00374786-038126e0-4a117116] found.
Track   [  CRC   |   V2   ] Status
 01     [c1d0dbaa|7769ea45] (0+2/2) Accurately ripped
 02     [e5aa2492|8fc4c720] (0+2/2) Accurately ripped
 03     [2ec9d291|40017063] (0+2/2) Accurately ripped
 04     [9ab3643d|e8418de0] (0+2/2) Accurately ripped
 05     [294f5e33|a0a82e8b] (0+2/2) Accurately ripped
 06     [d42e7127|8976c666] (0+2/2) Accurately ripped
 07     [8ab44aa5|b02876ce] (0+2/2) Accurately ripped
 08     [203ad235|bdc19677] (0+2/2) Accurately ripped
 09     [d2fb8f05|a9927528] (0+2/2) Accurately ripped
 10     [357a14d2|daba8a65] (0+2/2) Accurately ripped
 11     [9b1caa35|8cd71ae8] (0+2/2) Accurately ripped
 12     [1526ea8d|0672bb8d] (0+2/2) Accurately ripped
 13     [e12896fe|35e46110] (0+2/2) Accurately ripped
 14     [5b0101e7|ca0fa764] (0+2/2) Accurately ripped
 15     [a37967f3|3c1aa8f0] (0+2/2) Accurately ripped
 16     [02668f4a|5a42b5fd] (0+2/2) Accurately ripped
 17     [25fb64cc|e0411426] (0+2/2) Accurately ripped
 18     [54ce9366|486d7976] (0+2/2) Accurately ripped
 19     [45ecfab4|7f739af0] (0+2/2) Accurately ripped
 20     [083fc1f0|b5f78d9d] (0+2/2) Accurately ripped
 21     [92a78543|b30ef323] (0+2/2) Accurately ripped
 22     [e54253bc|21b7a613] (0+2/2) Accurately ripped

Track Peak [ CRC32  ] [W/O NULL]
 --  100,0 [BB731BAF] [9F038921]
 01   83,1 [CC33BB96] [2F07E75C]
 02   67,1 [9FA2086D] [20072F3E]
 03   74,2 [83FDB5FD] [D6D4BCC5]
 04  100,0 [B2B2B13F] [9353F0E4]
 05   83,2 [BEFE6685] [CB5A9946]
 06   74,8 [0BF6A03B] [7374BE1C]
 07   83,5 [DFB4E4F1] [297619F3]
 08   83,5 [73D7CA76] [398BF433]
 09   85,5 [D7570405] [D8B24E28]
 10   84,3 [2D4F1202] [6147F384]
 11   84,9 [38299480] [A2393A19]
 12   84,3 [F328F4BD] [6CFB0C04]
 13   84,7 [A353CD4E] [799E93EE]
 14   85,5 [0D560331] [42EA669A]
 15   85,5 [069D4EEE] [F78B9970]
 16   84,8 [F93A61A9] [1152E4EF]
 17   83,6 [69849831] [55B3695E]
 18   84,8 [C242D132] [8CE70EE6]
 19   85,3 [67210659] [FB42FBFE]
 20   84,4 [D7E7085F] [E5F2586B]
 21   82,8 [6AC1B7B9] [9DEC8355]
 22   84,9 [23DF61A1] [BE63AE00]
Any questions - support@pro-jazz.com. Есть вопросы - support@pro-jazz.com
18:43
535
Нет комментариев. Ваш будет первым!