Поиск

2004 Mindi Abair - Come As You Are

2004 Mindi Abair - Come As You Are
Состав:
  • Lance Abair Sax (Tenor)
  • Mindi Abair Composer, Cymbals, Flute, Handclapping, Horn Arrangements, Keyboards, Noise, Sax (Alto), Sax (Soprano), Shaker, Tambourine, Vocals
  • Brett Banducci Viola
  • Luis Conte Percussion
  • Russell Ferrante Piano
  • Steve Ferrone Drums
 
остальной состав
  • Matthew Hager Audio Production, Bass, Composer, Guitar (Acoustic), Guitar (Electric), Guitar Effects, Guitars, Handclapping, Horn Arrangements, Keyboards, Noise, Percussion, Producer, Programming, Vocals (Background)
  • Bud Harner Executive Producer, Hi Hat, Ride Cymbal
  • Michael Landau Guitar (Acoustic), Guitar (Electric)
  • Dan Marfisi Composer, Guitar (Acoustic), Guitars
  • Ricky Peterson Fender Rhodes, Organ, Organ (Hammond), Piano, Wurlitzer, Wurlitzer Piano
  • Julie Rogers String Arrangements, Violin
  • Anatoly Rosinsky Violin
  • Stan Sargeant Bass, Bass (Upright), Fretless Bass
  • T.M. Stevens Guitar (Electric), Producer, Programming, Wah Wah Guitar
  • Ty Stevens Guitars
  • Steve Sykes Audio Engineer, Engineer, Mixing
  • Jamey Tate Drums
  • Lee Thornburg Trombone, Trumpet
  • Kevan Torfeh Cello
  • David Woodford Sax (Baritone)

Дата издания диска: 14 сентября 2004
Место записи: 76 Steps Studios, Hollywood, CA
Castle Oaks Studios, Calabasas, CA
Glenwood Place Studios, Burbank, CA
Страна-производитель диска (релиза): Russia
Номер по каталогу: ZZ-04GP0001482
Носитель: CD
Битрейт аудио: lossless
Аудиокодек: FLAC (*.flac)
Тип рипа: tracks+.cue
Время звучания: 50:30
Наличие сканов: да

Треклист:
01. Come as You Are (4:22)
02. Shine (3:42)
03 Every Time (3:49)
04. Head Over Heels (2:58)
05. Make a Wish (4:34)
06. Sticks and Stones (4:41)
07. I Can Remember (4:05)
08. New Shoes (5:04)
09. High Five (4:01)
10. You'll Never Know (2:50)
11. Cyan (10:24)

Лог создания рипа
Exact Audio Copy V1.1 from 23. June 2015

Отчёт EAC об извлечении, выполненном 2. июня 2017, 23:46

Mindi Abair / Come As You Are

Дисковод: HL-DT-STBD-RE  BE12LU30   Adapter: 1  ID: 1

Режим чтения                 : Достоверность
Использование точного потока : Да
Отключение кэша аудио        : Да
Использование указателей C2  : Нет

Коррекция смещения при чтении                     : 667
Способность читать области Lead-in и Lead-out     : Нет
Заполнение пропущенных сэмплов тишиной            : Да
Удаление блоков с тишиной в начале и конце        : Нет
При вычислениях CRC использовались нулевые сэмплы : Да
Интерфейс                                         : Встроенный Win32-интерфейс для Win NT/2000
Обработка зазоров                                 : Добавлено к предыдущему треку

Выходной формат          : Пользовательский кодировщик
Выбранный битрейт        : 896 kBit/s
Качество                 : Высокий
Добавление ID3-тега      : Нет
Утилита сжатия           : C:\Program Files (x86)\Exact Audio Copy\Flac\flac.exe
Дополнительные параметры : -V -8 -T "Genre=%genre%" -T "Artist=%artist%" -T "Title=%title%" -T "Album=%albumtitle%" -T "Date=%year%" -T "Tracknumber=%tracknr%" -T "Comment=%comment%" %source%


TOC извлечённого CD

     Трек |   Старт  | Длительность | Начальный сектор | Конечный сектор 
    ---------------------------------------------------------------------
       1  |  0:00.00 |    4:22.30   |           0      |      19679      
       2  |  4:22.30 |    3:42.05   |       19680      |      36334      
       3  |  8:04.35 |    3:49.12   |       36335      |      53521      
       4  | 11:53.47 |    2:58.03   |       53522      |      66874      
       5  | 14:51.50 |    4:34.22   |       66875      |      87446      
       6  | 19:25.72 |    4:41.08   |       87447      |     108529      
       7  | 24:07.05 |    4:05.50   |      108530      |     126954      
       8  | 28:12.55 |    5:04.32   |      126955      |     149786      
       9  | 33:17.12 |    4:01.68   |      149787      |     167929      
      10  | 37:19.05 |    2:50.35   |      167930      |     180714      
      11  | 40:09.40 |   10:24.55   |      180715      |     227569      


Трек  1

     Имя файла D:\Music\2004 Mindi Abair - Come As You Are\01. Mindi Abair - Come As You Are.wav

     Длина предзазора  0:00:02.00

     Пиковый уровень 99.8 %
     Скорость извлечения 1.1 X
     Качество трека 100.0 %
     CRC теста 3F08B39F
     CRC копии 3F08B39F
     Точное извлечение (достоверность 2)  [834F1773]  (AR v1)
     Копирование... OK

Трек  2

     Имя файла D:\Music\2004 Mindi Abair - Come As You Are\02. Mindi Abair - Shine.wav

     Длина предзазора  0:00:00.10

     Пиковый уровень 94.2 %
     Скорость извлечения 1.0 X
     Качество трека 99.9 %
     CRC теста 8FBA250A
     CRC копии 8FBA250A
     Точность не определена (достоверность 30)  [245E7C05], AccurateRip вернул [B7161CBE]  (AR v2)
     Копирование... OK

Трек  3

     Имя файла D:\Music\2004 Mindi Abair - Come As You Are\03. Mindi Abair - Every Time.wav

     Длина предзазора  0:00:00.43

     Пиковый уровень 99.8 %
     Скорость извлечения 1.3 X
     Качество трека 100.0 %
     CRC теста 943A24DE
     CRC копии 943A24DE
     Точность не определена (достоверность 30)  [20E67074], AccurateRip вернул [2D3E914D]  (AR v2)
     Копирование... OK

Трек  4

     Имя файла D:\Music\2004 Mindi Abair - Come As You Are\04. Mindi Abair - Head Over Heels.wav

     Длина предзазора  0:00:00.20

     Пиковый уровень 99.2 %
     Скорость извлечения 1.3 X
     Качество трека 100.0 %
     CRC теста DD39EAF1
     CRC копии DD39EAF1
     Точность не определена (достоверность 30)  [1EE1B021], AccurateRip вернул [EF4CF415]  (AR v2)
     Копирование... OK

Трек  5

     Имя файла D:\Music\2004 Mindi Abair - Come As You Are\05. Mindi Abair - Make a Wish.wav

     Пиковый уровень 99.8 %
     Скорость извлечения 1.5 X
     Качество трека 100.0 %
     CRC теста 93058C85
     CRC копии 93058C85
     Точность не определена (достоверность 30)  [AD4015F4], AccurateRip вернул [AF61BEBB]  (AR v2)
     Копирование... OK

Трек  6

     Имя файла D:\Music\2004 Mindi Abair - Come As You Are\06. Mindi Abair - Sticks and Stones.wav

     Пиковый уровень 99.1 %
     Скорость извлечения 1.6 X
     Качество трека 100.0 %
     CRC теста C8181C45
     CRC копии C8181C45
     Точность не определена (достоверность 29)  [623D3155], AccurateRip вернул [7EC7FA1D]  (AR v2)
     Копирование... OK

Трек  7

     Имя файла D:\Music\2004 Mindi Abair - Come As You Are\07. Mindi Abair - I Can Remember.wav

     Длина предзазора  0:00:00.33

     Пиковый уровень 99.4 %
     Скорость извлечения 1.5 X
     Качество трека 99.9 %
     CRC теста 3D85AD24
     CRC копии 3D85AD24
     Точность не определена (достоверность 30)  [D084A470], AccurateRip вернул [D0A8D34B]  (AR v2)
     Копирование... OK

Трек  8

     Имя файла D:\Music\2004 Mindi Abair - Come As You Are\08. Mindi Abair - New Shoes.wav

     Пиковый уровень 96.4 %
     Скорость извлечения 1.7 X
     Качество трека 99.9 %
     CRC теста B305FD06
     CRC копии B305FD06
     Точность не определена (достоверность 30)  [5A68BDD6], AccurateRip вернул [6ACA9184]  (AR v2)
     Копирование... OK

Трек  9

     Имя файла D:\Music\2004 Mindi Abair - Come As You Are\09. Mindi Abair - High Five.wav

     Пиковый уровень 99.8 %
     Скорость извлечения 1.9 X
     Качество трека 100.0 %
     CRC теста 65FA9CBF
     CRC копии 65FA9CBF
     Точность не определена (достоверность 30)  [EC312AD2], AccurateRip вернул [2C7E4257]  (AR v2)
     Копирование... OK

Трек 10

     Имя файла D:\Music\2004 Mindi Abair - Come As You Are\10. Mindi Abair - You’ll Never Know.wav

     Пиковый уровень 96.4 %
     Скорость извлечения 1.8 X
     Качество трека 100.0 %
     CRC теста 9AB35543
     CRC копии 9AB35543
     Точность не определена (достоверность 30)  [7BBCF55E], AccurateRip вернул [89E89138]  (AR v2)
     Копирование... OK

Трек 11

     Имя файла D:\Music\2004 Mindi Abair - Come As You Are\11. Mindi Abair - Cyan.wav

     Длина предзазора  0:00:01.18

     Пиковый уровень 99.8 %
     Скорость извлечения 2.3 X
     Качество трека 100.0 %
     CRC теста EA60FAD0
     CRC копии EA60FAD0
     Точность не определена (достоверность 29)  [4D6A3963], AccurateRip вернул [87660004]  (AR v2)
     Копирование... OK


 1 трек(и) скопированы точно
10 трек(и) не удалось проверить на точность

Некоторые треки не прошли проверку на точность

Ошибок не произошло

Конец отчёта

---- CUETools DB Plugin V2.1.6

[CTDB TOCID: zkDQpXBgnE6WpW0Nly8gqpJjIxo-] found
Submit result: zkDQpXBgnE6WpW0Nly8gqpJjIxo- has been confirmed
Track | CTDB Status
  1   | (38/40) Accurately ripped
  2   | (38/40) Accurately ripped
  3   | (33/40) Accurately ripped
  4   | (33/40) Accurately ripped
  5   | (33/40) Accurately ripped
  6   | (36/40) Accurately ripped
  7   | (38/40) Accurately ripped
  8   | (38/40) Accurately ripped
  9   | (37/40) Accurately ripped
 10   | (38/40) Accurately ripped
 11   | (36/40) Accurately ripped


==== Контрольная сумма отчёта 8FDBAD6B14295F2ABF0CA77369D380CCBFFB234591B3D2F9DCE309BCC8F31741 ====
Содержание индексной карты (.CUE)
REM DATE 2004
REM DISCID A30BDA0B
REM COMMENT "ExactAudioCopy v1.1"
PERFORMER "Mindi Abair"
TITLE "Come As You Are"
FILE "01. Mindi Abair - Come As You Are.wav" WAVE
  TRACK 01 AUDIO
    TITLE "Come As You Are"
    PERFORMER "Mindi Abair"
    INDEX 01 00:00:00
  TRACK 02 AUDIO
    TITLE "Shine"
    PERFORMER "Mindi Abair"
    INDEX 00 04:22:20
FILE "02. Mindi Abair - Shine.wav" WAVE
    INDEX 01 00:00:00
  TRACK 03 AUDIO
    TITLE "Every Time"
    PERFORMER "Mindi Abair"
    INDEX 00 03:41:37
FILE "03. Mindi Abair - Every Time.wav" WAVE
    INDEX 01 00:00:00
  TRACK 04 AUDIO
    TITLE "Head Over Heels"
    PERFORMER "Mindi Abair"
    INDEX 00 03:48:67
FILE "04. Mindi Abair - Head Over Heels.wav" WAVE
    INDEX 01 00:00:00
FILE "05. Mindi Abair - Make a Wish.wav" WAVE
  TRACK 05 AUDIO
    TITLE "Make a Wish"
    PERFORMER "Mindi Abair"
    INDEX 01 00:00:00
FILE "06. Mindi Abair - Sticks and Stones.wav" WAVE
  TRACK 06 AUDIO
    TITLE "Sticks and Stones"
    PERFORMER "Mindi Abair"
    INDEX 01 00:00:00
  TRACK 07 AUDIO
    TITLE "I Can Remember"
    PERFORMER "Mindi Abair"
    INDEX 00 04:40:50
FILE "07. Mindi Abair - I Can Remember.wav" WAVE
    INDEX 01 00:00:00
FILE "08. Mindi Abair - New Shoes.wav" WAVE
  TRACK 08 AUDIO
    TITLE "New Shoes"
    PERFORMER "Mindi Abair"
    INDEX 01 00:00:00
FILE "09. Mindi Abair - High Five.wav" WAVE
  TRACK 09 AUDIO
    TITLE "High Five"
    PERFORMER "Mindi Abair"
    INDEX 01 00:00:00
FILE "10. Mindi Abair - You’ll Never Know.wav" WAVE
  TRACK 10 AUDIO
    TITLE "You’ll Never Know"
    PERFORMER "Mindi Abair"
    INDEX 01 00:00:00
  TRACK 11 AUDIO
    TITLE "Cyan"
    PERFORMER "Mindi Abair"
    INDEX 00 02:49:17
FILE "11. Mindi Abair - Cyan.wav" WAVE
    INDEX 01 00:00:00
Скачивание доступно после регистрации!!
Приватный:
Нет (DHT включён)
Размер:
347.15 Мб (364,016,947 байт) » файлов: 21
Участники:
1 раздают, 0 качают (1 участников всего)
Внешние участники:
--- [ Обновить ]
00:59
115
RSS
Нет комментариев. Ваш будет первым!