Вы используете незарегистрированную версию компонента "Вкладки"!

Поиск

2004 James Scholfield - All Stations {Challenge Jazz} [DST64]

2004 James Scholfield - All Stations {Challenge Jazz} [DST64]
Стили:
Дата издания диска:
11 октября 2004
Издатель (лейбл):
Битрейт аудио:
lossless
Доп. инфо:

Mixed in DSD at Studio Le Roy in Amsterdam, The Netherlands in 2004

Формат записи/Источник записи: [SACD-R][OF]
Наличие водяных знаков: Нет
Год издания/переиздания диска: 2004
Продолжительность: 60:01
Наличие сканов в содержимом раздачи: Да (сканы)
Источник (релизер): SA-CD.net

Контейнер: ISO (*.iso)
Тип рипа: image
Разрядность: 64(2,8 MHz/1 Bit)
Формат: DST64
Количество каналов: 5.1 / 2.0

Лог проверки качества
foobar2000 1.3.1 / Dynamic Range Meter 1.1.1
log date: 2016-03-31 17:54:05

--------------------------------------------------------------------------------
Analyzed: James Scholfield featuring Arno Krijger & Billy Hart / All Stations
--------------------------------------------------------------------------------

DR         Peak         RMS     Duration Track
--------------------------------------------------------------------------------
DR15      -7.67 dB   -26.82 dB      5:48 01-Alle Stasies
DR14      -7.64 dB   -26.33 dB      7:12 02-In The Beginning
DR13      -8.96 dB   -31.77 dB      8:05 03-Spoken Word
DR14      -7.74 dB   -25.22 dB      8:46 04-Ikhaya
DR13      -8.71 dB   -27.88 dB      5:11 05-Movin' Up
DR13      -7.92 dB   -30.78 dB      6:22 06-Ever Present
DR13      -7.90 dB   -25.12 dB      6:01 07-What's In A Name
DR14      -5.84 dB   -24.04 dB      4:31 08-Blues For Basil
DR14      -8.02 dB   -27.32 dB      3:55 09-Let It Go
DR13      -7.52 dB   -25.37 dB      4:40 10-Diminishing Returns
--------------------------------------------------------------------------------

Number of tracks:  10
Official DR value: DR14

Samplerate:        2822400 Hz / PCM Samplerate: 88200 Hz
Channels:          6
Bits per sample:   24
Bitrate:           16934 kbps
Codec:             DST64
================================================================================

--------------------------------------------------------------------------------
Analyzed: James Scholfield featuring Arno Krijger & Billy Hart / All Stations
--------------------------------------------------------------------------------

DR         Peak         RMS     Duration Track
--------------------------------------------------------------------------------
DR13      -7.46 dB   -23.56 dB      5:48 01-Alle Stasies
DR14      -7.99 dB   -24.66 dB      7:12 02-In The Beginning
DR13     -10.98 dB   -29.84 dB      8:05 03-Spoken Word
DR15      -8.41 dB   -25.45 dB      8:46 04-Ikhaya
DR14      -7.79 dB   -24.40 dB      5:11 05-Movin' Up
DR14      -8.05 dB   -26.98 dB      6:22 06-Ever Present
DR12      -8.18 dB   -23.08 dB      6:01 07-What's In A Name
DR13      -7.92 dB   -23.68 dB      4:31 08-Blues For Basil
DR15     -10.22 dB   -26.74 dB      3:55 09-Let It Go
DR13      -7.25 dB   -23.69 dB      4:40 10-Diminishing Returns
--------------------------------------------------------------------------------

Number of tracks:  10
Official DR value: DR14

Samplerate:        2822400 Hz / PCM Samplerate: 88200 Hz
Channels:          2
Bits per sample:   24
Bitrate:           5645 kbps
Codec:             DST64
================================================================================
Any questions - support@pro-jazz.com. Есть вопросы - support@pro-jazz.com
13:06
215
Нет комментариев. Ваш будет первым!