Поиск

2004 Coleman Hawkins - 1950-1953 {The Chronological Classics CC1340} [CD]

2004 Coleman Hawkins - 1950-1953 {The Chronological Classics CC1340} [CD]
Дата записи диска:
16 сентября 1950 - 27 апреля 1953
Дата издания диска:
20 апреля 2004
Издатель (лейбл):
Номер по каталогу:
CC1340
Носитель:
CD
Тип рипа:
tracks+.cue
Аудиокодек:
FLAC (*.flac)
Битрейт аудио:
lossless
Время звучания:
01:02:48
Наличие сканов:
да
Страна-производитель диска (релиза):
France
Релизёр (источник):
redacted
Лог создания рипа
Exact Audio Copy V1.3 from 2. September 2016

EAC extraction logfile from 2. March 2020, 8:58

Coleman Hawkins / The Chronologoy 1950-1953

Used drive  : PLDS    DVD+-RW DU-8A5LH   Adapter: 1  ID: 0

Read mode               : Secure
Utilize accurate stream : Yes
Defeat audio cache      : Yes
Make use of C2 pointers : No

Read offset correction                      : 6
Overread into Lead-In and Lead-Out          : No
Fill up missing offset samples with silence : Yes
Delete leading and trailing silent blocks   : No
Null samples used in CRC calculations       : Yes
Used interface                              : Native Win32 interface for Win NT & 2000
Gap handling                                : Appended to previous track

Used output format              : User Defined Encoder
Selected bitrate                : 1024 kBit/s
Quality                         : High
Add ID3 tag                     : No
Command line compressor         : C:/Program Files (x86)/Exact Audio Copy/Flac/flac.exe
Additional command line options : -8 -e -p -V -T "ARTIST=%artist%" -T "TITLE=%title%" -T "ALBUM=%albumtitle%" -T "DATE=%year%" -T "TRACKNUMBER=%tracknr%" -T "GENRE=%genre%" -T "PERFORMER=%albuminterpret%" -T "COMPOSER=%composer%" %haslyrics%--tag-from-file=LYRICS="%lyricsfile%"%haslyrics% -T "ALBUMARTIST=%albumartist%" -T "DISCNUMBER=%cdnumber%" -T "TOTALDISCS=%totalcds%" -T "TOTALTRACKS=%numtracks%" -T "COMMENT=%comment%" %source% -o %dest%

TOC of the extracted CD

     Track |   Start  |  Length  | Start sector | End sector
    ---------------------------------------------------------
        1  |  0:00.00 |  6:39.09 |         0    |    29933
        2  |  6:39.09 |  3:56.52 |     29934    |    47685
        3  | 10:35.61 |  4:52.38 |     47686    |    69623
        4  | 15:28.24 |  2:58.47 |     69624    |    83020
        5  | 18:26.71 |  2:59.27 |     83021    |    96472
        6  | 21:26.23 |  3:08.10 |     96473    |   110582
        7  | 24:34.33 |  2:45.36 |    110583    |   122993
        8  | 27:19.69 |  3:06.66 |    122994    |   137009
        9  | 30:26.60 |  2:28.04 |    137010    |   148113
       10  | 32:54.64 |  3:06.38 |    148114    |   162101
       11  | 36:01.27 |  3:10.26 |    162102    |   176377
       12  | 39:11.53 |  3:15.35 |    176378    |   191037
       13  | 42:27.13 |  2:57.20 |    191038    |   204332
       14  | 45:24.33 |  3:15.26 |    204333    |   218983
       15  | 48:39.59 |  2:58.22 |    218984    |   232355
       16  | 51:38.06 |  2:28.18 |    232356    |   243473
       17  | 54:06.24 |  3:00.46 |    243474    |   257019
       18  | 57:06.70 |  2:50.12 |    257020    |   269781
       19  | 59:57.07 |  2:51.73 |    269782    |   282679

Track  1

     Filename C:\Users\onean\Desktop\Coleman Hawkins - Th Chronological 1950-1953 (2004) [Flac] {Classics 1340}\01 - Stuffy.wav

     Pre-gap length  0:00:02.00

     Peak level 79.7 %
     Extraction speed 1.1 X
     Track quality 100.0 %
     Test CRC E88F89B7
     Copy CRC E88F89B7
     Accurately ripped (confidence 2)  [54B0A89B]  (AR v1)
     Copy OK

Track  2

     Filename C:\Users\onean\Desktop\Coleman Hawkins - Th Chronological 1950-1953 (2004) [Flac] {Classics 1340}\02 - Yesterdays.wav

     Peak level 80.4 %
     Extraction speed 1.1 X
     Track quality 99.9 %
     Test CRC EE930934
     Copy CRC EE930934
     Accurately ripped (confidence 2)  [E75C7881]  (AR v1)
     Copy OK

Track  3

     Filename C:\Users\onean\Desktop\Coleman Hawkins - Th Chronological 1950-1953 (2004) [Flac] {Classics 1340}\03 - Hawk's Tune.wav

     Peak level 80.0 %
     Extraction speed 1.3 X
     Track quality 99.9 %
     Test CRC 73E88464
     Copy CRC 73E88464
     Accurately ripped (confidence 2)  [5E7F531E]  (AR v1)
     Copy OK

Track  4

     Filename C:\Users\onean\Desktop\Coleman Hawkins - Th Chronological 1950-1953 (2004) [Flac] {Classics 1340}\04 - Sin.wav

     Pre-gap length  0:00:02.09

     Peak level 89.7 %
     Extraction speed 1.2 X
     Track quality 99.9 %
     Test CRC 4A756AE3
     Copy CRC 4A756AE3
     Accurately ripped (confidence 2)  [9CEDA47C]  (AR v1)
     Copy OK

Track  5

     Filename C:\Users\onean\Desktop\Coleman Hawkins - Th Chronological 1950-1953 (2004) [Flac] {Classics 1340}\05 - And So To Sleep Again.wav

     Pre-gap length  0:00:02.13

     Peak level 89.1 %
     Extraction speed 1.5 X
     Track quality 100.0 %
     Test CRC 32593848
     Copy CRC 32593848
     Accurately ripped (confidence 2)  [68BB6659]  (AR v1)
     Copy OK

Track  6

     Filename C:\Users\onean\Desktop\Coleman Hawkins - Th Chronological 1950-1953 (2004) [Flac] {Classics 1340}\06 - Spellbound.wav

     Pre-gap length  0:00:02.13

     Peak level 89.4 %
     Extraction speed 1.6 X
     Track quality 100.0 %
     Test CRC 739D3491
     Copy CRC 739D3491
     Accurately ripped (confidence 2)  [00CA688D]  (AR v1)
     Copy OK

Track  7

     Filename C:\Users\onean\Desktop\Coleman Hawkins - Th Chronological 1950-1953 (2004) [Flac] {Classics 1340}\07 - Amber.wav

     Pre-gap length  0:00:02.13

     Peak level 89.0 %
     Extraction speed 1.6 X
     Track quality 100.0 %
     Test CRC A1254182
     Copy CRC A1254182
     Accurately ripped (confidence 2)  [325A3F28]  (AR v1)
     Copy OK

Track  8

     Filename C:\Users\onean\Desktop\Coleman Hawkins - Th Chronological 1950-1953 (2004) [Flac] {Classics 1340}\08 - Lost In A Fog.wav

     Pre-gap length  0:00:02.13

     Peak level 88.0 %
     Extraction speed 1.4 X
     Track quality 99.9 %
     Test CRC DB573F6D
     Copy CRC DB573F6D
     Accurately ripped (confidence 2)  [D6F31527]  (AR v1)
     Copy OK

Track  9

     Filename C:\Users\onean\Desktop\Coleman Hawkins - Th Chronological 1950-1953 (2004) [Flac] {Classics 1340}\09 - Caioca.wav

     Pre-gap length  0:00:02.13

     Peak level 88.4 %
     Extraction speed 1.4 X
     Track quality 99.9 %
     Test CRC 13210BD4
     Copy CRC 13210BD4
     Accurately ripped (confidence 2)  [FFE3794C]  (AR v1)
     Copy OK

Track 10

     Filename C:\Users\onean\Desktop\Coleman Hawkins - Th Chronological 1950-1953 (2004) [Flac] {Classics 1340}\10 - Trust In Me.wav

     Pre-gap length  0:00:02.13

     Peak level 88.7 %
     Extraction speed 1.8 X
     Track quality 100.0 %
     Test CRC 43284274
     Copy CRC 43284274
     Accurately ripped (confidence 2)  [8DE12A64]  (AR v1)
     Copy OK

Track 11

     Filename C:\Users\onean\Desktop\Coleman Hawkins - Th Chronological 1950-1953 (2004) [Flac] {Classics 1340}\11 - Wishih'.wav

     Pre-gap length  0:00:02.13

     Peak level 89.6 %
     Extraction speed 1.9 X
     Track quality 100.0 %
     Test CRC 3AC2E921
     Copy CRC 3AC2E921
     Accurately ripped (confidence 2)  [970CA883]  (AR v1)
     Copy OK

Track 12

     Filename C:\Users\onean\Desktop\Coleman Hawkins - Th Chronological 1950-1953 (2004) [Flac] {Classics 1340}\12 - Lonely Wine.wav

     Pre-gap length  0:00:02.13

     Peak level 88.9 %
     Extraction speed 1.9 X
     Track quality 100.0 %
     Test CRC B6C05FDA
     Copy CRC B6C05FDA
     Accurately ripped (confidence 2)  [CB12655A]  (AR v1)
     Copy OK

Track 13

     Filename C:\Users\onean\Desktop\Coleman Hawkins - Th Chronological 1950-1953 (2004) [Flac] {Classics 1340}\13 - Midnight Sun.wav

     Pre-gap length  0:00:02.13

     Peak level 89.5 %
     Extraction speed 1.7 X
     Track quality 99.9 %
     Test CRC 1BA3F075
     Copy CRC 1BA3F075
     Accurately ripped (confidence 2)  [0119522E]  (AR v1)
     Copy OK

Track 14

     Filename C:\Users\onean\Desktop\Coleman Hawkins - Th Chronological 1950-1953 (2004) [Flac] {Classics 1340}\14 - If I Could Be With You.wav

     Pre-gap length  0:00:02.13

     Peak level 91.1 %
     Extraction speed 2.0 X
     Track quality 100.0 %
     Test CRC 29C045C4
     Copy CRC 29C045C4
     Accurately ripped (confidence 2)  [D0DE1B43]  (AR v1)
     Copy OK

Track 15

     Filename C:\Users\onean\Desktop\Coleman Hawkins - Th Chronological 1950-1953 (2004) [Flac] {Classics 1340}\15 - I Can't Get Started.wav

     Pre-gap length  0:00:02.13

     Peak level 89.9 %
     Extraction speed 1.7 X
     Track quality 99.9 %
     Test CRC B403A1CF
     Copy CRC B403A1CF
     Accurately ripped (confidence 2)  [DE23DF7B]  (AR v1)
     Copy OK

Track 16

     Filename C:\Users\onean\Desktop\Coleman Hawkins - Th Chronological 1950-1953 (2004) [Flac] {Classics 1340}\16 - Ruby.wav

     Pre-gap length  0:00:02.13

     Peak level 91.1 %
     Extraction speed 2.0 X
     Track quality 100.0 %
     Test CRC 6F9563D9
     Copy CRC 6F9563D9
     Accurately ripped (confidence 2)  [18CC1804]  (AR v1)
     Copy OK

Track 17

     Filename C:\Users\onean\Desktop\Coleman Hawkins - Th Chronological 1950-1953 (2004) [Flac] {Classics 1340}\17 - Moulin Rouge.wav

     Pre-gap length  0:00:02.13

     Peak level 89.9 %
     Extraction speed 1.8 X
     Track quality 99.9 %
     Test CRC FFBB5343
     Copy CRC FFBB5343
     Accurately ripped (confidence 2)  [087121BA]  (AR v1)
     Copy OK

Track 18

     Filename C:\Users\onean\Desktop\Coleman Hawkins - Th Chronological 1950-1953 (2004) [Flac] {Classics 1340}\18 - Lucky Duck.wav

     Pre-gap length  0:00:02.13

     Peak level 89.8 %
     Extraction speed 2.1 X
     Track quality 100.0 %
     Test CRC CFCFC135
     Copy CRC CFCFC135
     Accurately ripped (confidence 2)  [930BE8F8]  (AR v1)
     Copy OK

Track 19

     Filename C:\Users\onean\Desktop\Coleman Hawkins - Th Chronological 1950-1953 (2004) [Flac] {Classics 1340}\19 - Bye 'N' Bye.wav

     Pre-gap length  0:00:02.13

     Peak level 89.8 %
     Extraction speed 1.8 X
     Track quality 99.9 %
     Test CRC 2675F32F
     Copy CRC 2675F32F
     Accurately ripped (confidence 2)  [984558A9]  (AR v1)
     Copy OK

All tracks accurately ripped

No errors occurred

End of status report

---- CUETools DB Plugin V2.1.6

[CTDB TOCID: aSwhQgcZsZEBrZO0Ddpze831_xo-] found
Submit result: aSwhQgcZsZEBrZO0Ddpze831_xo- has been confirmed
Track | CTDB Status
  1   | (1/1) Accurately ripped
  2   | (1/1) Accurately ripped
  3   | (1/1) Accurately ripped
  4   | (1/1) Accurately ripped
  5   | (1/1) Accurately ripped
  6   | (1/1) Accurately ripped
  7   | (1/1) Accurately ripped
  8   | (1/1) Accurately ripped
  9   | (1/1) Accurately ripped
 10   | (1/1) Accurately ripped
 11   | (1/1) Accurately ripped
 12   | (1/1) Accurately ripped
 13   | (1/1) Accurately ripped
 14   | (1/1) Accurately ripped
 15   | (1/1) Accurately ripped
 16   | (1/1) Accurately ripped
 17   | (1/1) Accurately ripped
 18   | (1/1) Accurately ripped
 19   | (1/1) Accurately ripped

==== Log checksum F286CAE35DA5EBEDD030D408B3423412EC87D062BCDE1031DB83A9064AF3BE98 ====
No seeders - write personal message to M0p94ok. Any questions - support@pro-jazz.com.
Нет сидеров - пишите в личку M0p94ok. Есть вопросы - support@pro-jazz.com
16:45
61
Нет комментариев. Ваш будет первым!