Поиск

2003 Mindi Abair - It Just Happens That Way {GRP 065229}

2003 Mindi Abair - It Just Happens That Way {GRP 065229}
Страна-производитель диска (релиза):
Ukraine
Дата записи диска:
август 2002
Дата издания диска:
25 февраля 2003
Издатель (лейбл):
Номер по каталогу:
065229
Носитель:
CD
Аудиокодек:
FLAC (*.flac)
Тип рипа:
tracks+.cue
Битрейт аудио:
1
Время звучания:
47:30
Треклист:
01. Lucy's 4:03
02. Flirt 3:19
03. Save the Last Dance 3:57
04. As Good as It Gets 5:09
05. Save Tonight 3:41
06. Right On 4:11
07. It Just Happens That Way 3:39
08. Salt and Lime 3:52
09. Momo 4:35
10. Play 3:35
11. Remember 3:43
12. Home 3:45
Лог создания рипа
Exact Audio Copy V1.1 from 23. June 2015

Отчёт EAC об извлечении, выполненном 2. июня 2017, 18:33

Mindi Abair / It Just Happens That Way

Дисковод: HL-DT-STBD-RE  BE12LU30   Adapter: 1  ID: 1

Режим чтения                 : Достоверность
Использование точного потока : Да
Отключение кэша аудио        : Да
Использование указателей C2  : Нет

Коррекция смещения при чтении                     : 667
Способность читать области Lead-in и Lead-out     : Нет
Заполнение пропущенных сэмплов тишиной            : Да
Удаление блоков с тишиной в начале и конце        : Нет
При вычислениях CRC использовались нулевые сэмплы : Да
Интерфейс                                         : Встроенный Win32-интерфейс для Win NT/2000
Обработка зазоров                                 : Добавлено к предыдущему треку

Выходной формат          : Пользовательский кодировщик
Выбранный битрейт        : 896 kBit/s
Качество                 : Высокий
Добавление ID3-тега      : Нет
Утилита сжатия           : C:\Program Files (x86)\Exact Audio Copy\Flac\flac.exe
Дополнительные параметры : -V -8 -T "Genre=%genre%" -T "Artist=%artist%" -T "Title=%title%" -T "Album=%albumtitle%" -T "Date=%year%" -T "Tracknumber=%tracknr%" -T "Comment=%comment%" %source%


TOC извлечённого CD

     Трек |   Старт  | Длительность | Начальный сектор | Конечный сектор 
    ---------------------------------------------------------------------
       1  |  0:00.00 |    4:03.23   |           0      |      18247      
       2  |  4:03.23 |    3:19.02   |       18248      |      33174      
       3  |  7:22.25 |    3:57.73   |       33175      |      51022      
       4  | 11:20.23 |    5:09.17   |       51023      |      74214      
       5  | 16:29.40 |    3:41.47   |       74215      |      90836      
       6  | 20:11.12 |    4:11.35   |       90837      |     109696      
       7  | 24:22.47 |    3:39.51   |      109697      |     126172      
       8  | 28:02.23 |    3:52.57   |      126173      |     143629      
       9  | 31:55.05 |    4:35.25   |      143630      |     164279      
      10  | 36:30.30 |    3:35.58   |      164280      |     180462      
      11  | 40:06.13 |    3:43.10   |      180463      |     197197      
      12  | 43:49.23 |    3:46.17   |      197198      |     214164      


Трек  1

     Имя файла D:\Music\2003 Mindi Abair - It Just Happens That Way\01. Mindi Abair - Lucy's.wav

     Длина предзазора  0:00:02.00

     Пиковый уровень 98.8 %
     Скорость извлечения 1.2 X
     Качество трека 100.0 %
     CRC теста 8624C5CE
     CRC копии 8624C5CE
     Точное извлечение (достоверность 2)  [A7A55AE5]  (AR v1)
     Копирование... OK

Трек  2

     Имя файла D:\Music\2003 Mindi Abair - It Just Happens That Way\02. Mindi Abair - Flirt.wav

     Пиковый уровень 99.1 %
     Скорость извлечения 1.3 X
     Качество трека 100.0 %
     CRC теста 3F94A10B
     CRC копии 3F94A10B
     Точное извлечение (достоверность 2)  [6FE0F852]  (AR v1)
     Копирование... OK

Трек  3

     Имя файла D:\Music\2003 Mindi Abair - It Just Happens That Way\03. Mindi Abair - Save the Last Dance.wav

     Длина предзазора  0:00:00.42

     Пиковый уровень 99.2 %
     Скорость извлечения 1.5 X
     Качество трека 100.0 %
     CRC теста 9E49354B
     CRC копии 9E49354B
     Точное извлечение (достоверность 2)  [55BCA416]  (AR v1)
     Копирование... OK

Трек  4

     Имя файла D:\Music\2003 Mindi Abair - It Just Happens That Way\04. Mindi Abair - As Good as It Gets.wav

     Длина предзазора  0:00:00.38

     Пиковый уровень 99.8 %
     Скорость извлечения 1.7 X
     Качество трека 100.0 %
     CRC теста C8BF6A7B
     CRC копии C8BF6A7B
     Точное извлечение (достоверность 2)  [293FCE10]  (AR v1)
     Копирование... OK

Трек  5

     Имя файла D:\Music\2003 Mindi Abair - It Just Happens That Way\05. Mindi Abair - Save Tonight.wav

     Пиковый уровень 99.8 %
     Скорость извлечения 1.7 X
     Качество трека 100.0 %
     CRC теста 3C5295D4
     CRC копии 3C5295D4
     Точное извлечение (достоверность 2)  [A63E54F1]  (AR v1)
     Копирование... OK

Трек  6

     Имя файла D:\Music\2003 Mindi Abair - It Just Happens That Way\06. Mindi Abair - Right On.wav

     Длина предзазора  0:00:01.12

     Пиковый уровень 99.8 %
     Скорость извлечения 1.9 X
     Качество трека 100.0 %
     CRC теста 7804C377
     CRC копии 7804C377
     Точное извлечение (достоверность 2)  [22B7F887]  (AR v1)
     Копирование... OK

Трек  7

     Имя файла D:\Music\2003 Mindi Abair - It Just Happens That Way\07. Mindi Abair - It Just Happens That Way.wav

     Длина предзазора  0:00:00.29

     Пиковый уровень 99.8 %
     Скорость извлечения 1.9 X
     Качество трека 100.0 %
     CRC теста 05E55904
     CRC копии 05E55904
     Точное извлечение (достоверность 2)  [0B6EF272]  (AR v1)
     Копирование... OK

Трек  8

     Имя файла D:\Music\2003 Mindi Abair - It Just Happens That Way\08. Mindi Abair - Salt and Lime.wav

     Длина предзазора  0:00:00.23

     Пиковый уровень 98.8 %
     Скорость извлечения 1.8 X
     Качество трека 99.9 %
     CRC теста 7BD8F2ED
     CRC копии 7BD8F2ED
     Точное извлечение (достоверность 2)  [89E297E5]  (AR v1)
     Копирование... OK

Трек  9

     Имя файла D:\Music\2003 Mindi Abair - It Just Happens That Way\09. Mindi Abair - Momo.wav

     Пиковый уровень 99.8 %
     Скорость извлечения 2.2 X
     Качество трека 100.0 %
     CRC теста 3D61E6D9
     CRC копии 3D61E6D9
     Точное извлечение (достоверность 2)  [51E64FBE]  (AR v1)
     Копирование... OK

Трек 10

     Имя файла D:\Music\2003 Mindi Abair - It Just Happens That Way\10. Mindi Abair - Play.wav

     Длина предзазора  0:00:00.50

     Пиковый уровень 99.8 %
     Скорость извлечения 1.9 X
     Качество трека 99.9 %
     CRC теста 602D928A
     CRC копии 602D928A
     Точное извлечение (достоверность 2)  [41F4D1AF]  (AR v1)
     Копирование... OK

Трек 11

     Имя файла D:\Music\2003 Mindi Abair - It Just Happens That Way\11. Mindi Abair - Remember.wav

     Пиковый уровень 99.8 %
     Скорость извлечения 2.2 X
     Качество трека 100.0 %
     CRC теста A18057B0
     CRC копии A18057B0
     Точное извлечение (достоверность 2)  [E59C9206]  (AR v1)
     Копирование... OK

Трек 12

     Имя файла D:\Music\2003 Mindi Abair - It Just Happens That Way\12. Mindi Abair - Home.wav

     Длина предзазора  0:00:00.55

     Пиковый уровень 85.7 %
     Скорость извлечения 2.3 X
     Качество трека 100.0 %
     CRC теста 045EF649
     CRC копии 045EF649
     Точное извлечение (достоверность 2)  [C320044C]  (AR v1)
     Копирование... OK


Все треки извлечены точно

Ошибок не произошло

Конец отчёта

---- CUETools DB Plugin V2.1.6

[CTDB TOCID: whuxKFRa.8lfaAR23K_yWF7TLL0-] found
Submit result: already submitted
Track | CTDB Status
  1   | (62/63) Accurately ripped
  2   | (62/63) Accurately ripped
  3   | (62/63) Accurately ripped
  4   | (62/63) Accurately ripped
  5   | (62/63) Accurately ripped
  6   | (62/63) Accurately ripped
  7   | (62/63) Accurately ripped
  8   | (62/63) Accurately ripped
  9   | (62/63) Accurately ripped
 10   | (62/63) Accurately ripped
 11   | (62/63) Accurately ripped
 12   | (62/63) Accurately ripped


==== Контрольная сумма отчёта B4C5AB8E3F600A348673658EDE2A19648FA8B0001652B85B723D3CFBABCEF3E5 ====
Содержание индексной карты (.CUE)
REM DATE 2003
REM DISCID 9F0B270C
REM COMMENT "ExactAudioCopy v1.1"
PERFORMER "Mindi Abair"
TITLE "It Just Happens That Way"
FILE "01. Mindi Abair - Lucy's.wav" WAVE
  TRACK 01 AUDIO
    TITLE "Lucy's"
    PERFORMER "Mindi Abair"
    INDEX 01 00:00:00
FILE "02. Mindi Abair - Flirt.wav" WAVE
  TRACK 02 AUDIO
    TITLE "Flirt"
    PERFORMER "Mindi Abair"
    INDEX 01 00:00:00
  TRACK 03 AUDIO
    TITLE "Save the Last Dance"
    PERFORMER "Mindi Abair"
    INDEX 00 03:18:35
FILE "03. Mindi Abair - Save the Last Dance.wav" WAVE
    INDEX 01 00:00:00
  TRACK 04 AUDIO
    TITLE "As Good as It Gets"
    PERFORMER "Mindi Abair"
    INDEX 00 03:57:35
FILE "04. Mindi Abair - As Good as It Gets.wav" WAVE
    INDEX 01 00:00:00
FILE "05. Mindi Abair - Save Tonight.wav" WAVE
  TRACK 05 AUDIO
    TITLE "Save Tonight"
    PERFORMER "Mindi Abair"
    INDEX 01 00:00:00
  TRACK 06 AUDIO
    TITLE "Right On"
    PERFORMER "Mindi Abair"
    INDEX 00 03:40:35
FILE "06. Mindi Abair - Right On.wav" WAVE
    INDEX 01 00:00:00
  TRACK 07 AUDIO
    TITLE "It Just Happens That Way"
    PERFORMER "Mindi Abair"
    INDEX 00 04:11:06
FILE "07. Mindi Abair - It Just Happens That Way.wav" WAVE
    INDEX 01 00:00:00
  TRACK 08 AUDIO
    TITLE "Salt and Lime"
    PERFORMER "Mindi Abair"
    INDEX 00 03:39:28
FILE "08. Mindi Abair - Salt and Lime.wav" WAVE
    INDEX 01 00:00:00
FILE "09. Mindi Abair - Momo.wav" WAVE
  TRACK 09 AUDIO
    TITLE "Momo"
    PERFORMER "Mindi Abair"
    INDEX 01 00:00:00
  TRACK 10 AUDIO
    TITLE "Play"
    PERFORMER "Mindi Abair"
    INDEX 00 04:34:50
FILE "10. Mindi Abair - Play.wav" WAVE
    INDEX 01 00:00:00
FILE "11. Mindi Abair - Remember.wav" WAVE
  TRACK 11 AUDIO
    TITLE "Remember"
    PERFORMER "Mindi Abair"
    INDEX 01 00:00:00
  TRACK 12 AUDIO
    TITLE "Home"
    PERFORMER "Mindi Abair"
    INDEX 00 03:42:30
FILE "12. Mindi Abair - Home.wav" WAVE
    INDEX 01 00:00:00
Приватный:
Нет (DHT включён)
Размер:
347.17 Мб (364,035,904 байт) » файлов: 20
Участники:
0 раздают, 0 качают (0 участников всего)
Внешние участники:
5 раздают, 2 качают (7 участников всего) [ Обновить ]
19:04
218
Нет комментариев. Ваш будет первым!