Поиск

2002 Dave Holland Big Band - What Goes Around

2002 Dave Holland Big Band - What Goes Around
Дата записи диска:
январь 2001
Дата издания диска:
10 сентября 2002
Номер по каталогу:
1777
Носитель:
CD
Битрейт аудио:
lossless
Аудиокодек:
FLAC (*.flac)
Тип рипа:
tracks
Время звучания:
01:16:09
Наличие сканов:
  • да
Треклист:
01. Triple Dance (9:50) [Soloists: Gary Smulyan, Chris Potter, Robin Eubanks]
02. Blues for C.M. (9:02) [Soloists: Steve Nelson, Antonio Hart, Dave Holland]
03. The Razor's Edge (6:15) [Soloists: Duane Eubanks, Steve Nelson, Josh Roseman]
04. What Goes Around (17:18) [Soloists: Chris Potter, Robin Eubanks, Billy Kilson]
05. Upswing (6:51) [Soloists: Gary Smulyan, Alex Sipiagin]
06. First Snow (11:48) [Soloists: Alex Sipiagin, Andre Hayward, Mark Gross]
07. Shadow Dance (14:43) [Soloists: Dave Holland, Antonio Hart (flute, alto saxophone), Chris Potter, Billy Kilson]
Состав:
  • Manfred Eicher Executive Producer
  • Duane Eubanks Flugelhorn, Trumpet
  • Robin Eubanks Trombone
  • James Farber Engineer
  • Max Franosch Cover Image
  • Earl Gardner Flugelhorn, Trumpet
  • Mark Gross Sax (Alto)
  • Antonio Hart Fluteб Sax (Alto), Soloist
  • Andre Hayward Trombone
  • Dave Holland Arranger, Composer, Double Bass, Liner Notes, Producer
  • Louise Holland Producer
  • Billy Kilson Drums
  • Steve Nelson Vibraphone
  • Chris Potter Sax (Tenor)
  • Josh Roseman Trombone
  • Alex Sipiagin Flugelhorn, Trumpet
  • Gary Smulyan Sax (Baritone)
Лог создания рипа
EAC extraction logfile from 1. May 2007, 22:35 for CD
Dave Holland Big Band / What Goes Around
Used drive : _NEC DVD_RW ND-3500AG Adapter: 0 ID: 1
Read mode : Secure with NO C2, accurate stream, disable cache
Read offset correction : 48
Overread into Lead-In and Lead-Out : No
Used output format : C:\Program Files\FLAC\bin\flac.exe (User Defined Encoder)
192 kBit/s
Additional command line options : -8 -V -T "ARTIST=%a" -T "TITLE=%t" -T "ALBUM=%g" -T "DATE=%y" -T "TRACKNUMBER=%n" -T "GENRE=%m" -T "COMMENT=EAC Flac 1.1.3 -5" %s
Other options :
Fill up missing offset samples with silence : Yes
Delete leading and trailing silent blocks : No
Installed external ASPI interface
Track 1
Filename H:\UPLOAD\DAVE HOLLAND\What Goes Around\01 - Triple Dance.wav
Pre-gap length 0:00:02.00
Peak level 98.8 %
Track quality 100.0 %
Test CRC 0D3EC6F7
Copy CRC 0D3EC6F7
Copy OK
Track 2
Filename H:\UPLOAD\DAVE HOLLAND\What Goes Around\02 - Blues for C.M..wav
Pre-gap length 0:00:02.04
Peak level 98.7 %
Track quality 99.9 %
Test CRC D58D844C
Copy CRC D58D844C
Copy OK
Track 3
Filename H:\UPLOAD\DAVE HOLLAND\What Goes Around\03 - The Razor's Edge.wav
Pre-gap length 0:00:02.44
Peak level 98.8 %
Track quality 100.0 %
Test CRC 0677DD9E
Copy CRC 0677DD9E
Copy OK
Track 4
Filename H:\UPLOAD\DAVE HOLLAND\What Goes Around\04 - What Goes Around.wav
Pre-gap length 0:00:03.04
Peak level 98.8 %
Track quality 100.0 %
Test CRC 3094F8F5
Copy CRC 3094F8F5
Copy OK
Track 5
Filename H:\UPLOAD\DAVE HOLLAND\What Goes Around\05 - Upswing.wav
Pre-gap length 0:00:06.06
Peak level 98.7 %
Track quality 99.9 %
Test CRC 35623EB3
Copy CRC 35623EB3
Copy OK
Track 6
Filename H:\UPLOAD\DAVE HOLLAND\What Goes Around\06 - First Snow.wav
Pre-gap length 0:00:04.33
Peak level 98.6 %
Track quality 100.0 %
Test CRC 6F1E2D7B
Copy CRC 6F1E2D7B
Copy OK
Track 7
Filename H:\UPLOAD\DAVE HOLLAND\What Goes Around\07 - Shadow Dance.wav
Pre-gap length 0:00:05.10
Peak level 98.8 %
Track quality 100.0 %
Test CRC B9B06386
Copy CRC B9B06386
Copy OK
No errors occured
End of status report
Приватный:
Нет (DHT включён)
Размер:
574.11 Мб (602,000,286 байт) » файлов: 29
Участники:
0 раздают, 0 качают (0 участников всего)
Внешние участники:
2 раздают, 1 качают (3 участников всего) [ Обновить ]
08:54
61
RSS
Нет комментариев. Ваш будет первым!