Поиск

2001 Keiko Matsui - A Gift of Life {Narada Jazz 70876-15354-0-2}

2001 Keiko Matsui - A Gift of Life {Narada Jazz 70876-15354-0-2}
Стили:
Дата издания диска:
2001
Издатель (лейбл):
Номер по каталогу:
70876-15354-0-2
Носитель:
CD
Битрейт аудио:
lossless
Аудиокодек:
APE (*.ape)
Тип рипа:
image+.cue
Время звучания:
16:28
Наличие сканов:
  • да
Релизёр (источник):
nofate
Треклист:

1. Hope (exclusive acoustic version) 3:28
2. Between the Moons (from the album WHISPER FROM THE MIRROR) 5:27
3. Crescent Night Dream (from the album DEEP BLUE) 4:40
4. Beyond the Light (exclusive acoustic version) 2:46

Лог создания рипа
EAC extraction logfile from 5. December 2005, 14:16 for CD
Keiko Matsui / A Gift Of Life

Used drive  : LITE-ON DVD SOHD-167T   Adapter: 2  ID: 1
Read mode   : Secure with NO C2, accurate stream, disable cache
Combined read/write offset correction : 0
Overread into Lead-In and Lead-Out : No

Used output format : Internal WAV Routines
                     44.100 Hz; 16 Bit; Stereo

Other options      :
    Fill up missing offset samples with silence : Yes
    Delete leading and trailing silent blocks : No
    Installed external ASPI interface

Range status and errors
Selected range
     Filename F:\Keiko Matsui - A Gift Of Life (2001)\CDImage.wav

     Peak level 99.4 %
     Range quality 100.0 %
     CRC 73B25124
     Copy OK

No errors occured

End of status report
Содержание индексной карты (.CUE)
REM GENRE Jazz
REM DATE 2001
REM DISCID 250C4705
REM COMMENT "ExactAudioCopy v0.95b3"
PERFORMER "Keiko Matsui"
TITLE "A Gift Of Life"
FILE "CDImage.wav" WAVE
  TRACK 01 AUDIO
    TITLE "Hope [exclusive acoustic version]"
    PERFORMER "Keiko Matsui"
    INDEX 01 00:00:00
  TRACK 02 AUDIO
    TITLE "Between the Moons"
    PERFORMER "Keiko Matsui"
    INDEX 00 03:27:25
    INDEX 01 03:29:68
  TRACK 03 AUDIO
    TITLE "Crescent Night Dream"
    PERFORMER "Keiko Matsui"
    INDEX 00 08:56:68
    INDEX 01 08:59:36
  TRACK 04 AUDIO
    TITLE "Beyond the Light [exclusive acoustic version]"
    PERFORMER "Keiko Matsui"
    INDEX 00 13:39:43
    INDEX 01 13:41:43
Приватный:
Нет (DHT включён)
Размер:
79.44 Мб (83,293,853 байт) » файлов: 8
Участники:
0 раздают, 0 качают (0 участников всего)
Внешние участники:
Нет внешних трекеров [ Обновить ]
12:45
40
RSS
Нет комментариев. Ваш будет первым!