Поиск

2000 Tuck & Patti - Taking the Long Way Home {Windham Hill 01934 11507 2}

2000 Tuck & Patti - Taking the Long Way Home {Windham Hill 01934 11507 2}
Издатель (лейбл):
Треклист:
Носитель: CD
Страна-производитель диска: EU
Год издания: 2000
Номер по каталогу: 01934 11507 2
Страна: США
Аудиокодек: FLAC (*.flac)
Тип рипа: tracks+.cue
Битрейт аудио: lossless
Продолжительность: 47:45
Источник (релизер): Phase77 (what)
Наличие сканов в содержимом раздачи: да
Треклист:
01. Taking the Long Way Home (Cathcart) - 4:06
02. Ready to Love (Cathcart) - 4:55
03. Thank You (Cathcart) - 3:05
04. Take This Feeling (Cathcart) - 4:35
05. Song for the Souls (Cathcart) - 5:58
06. Lifeline (Cathcart) - 5:16
07. You Ain't Seen Nothing Yet (Cathcart) - 6:39
08. Path to Peace (Cathcart) - 3:55
09. Early Morning Music Box (Cathcart-Andress) - 3:48
10. This Light This Life (Cathcart) - 5:28
 
Лог создания рипа
Exact Audio Copy V0.99 prebeta 5 from 4. May 2009
EAC extraction logfile from 20. May 2010, 15:21
Tuck & Patti / Taking The Long Way Home
Used drive  : TSSTcorpCDDVDW SH-S223B   Adapter: 2  ID: 1
Read mode               : Secure
Utilize accurate stream : Yes
Defeat audio cache      : Yes
Make use of C2 pointers : No
Read offset correction                      : 6
Overread into Lead-In and Lead-Out          : No
Fill up missing offset samples with silence : Yes
Delete leading and trailing silent blocks   : No
Null samples used in CRC calculations       : Yes
Used interface                              : Native Win32 interface for Win NT & 2000
Gap handling                                : Appended to previous track
Used output format              : User Defined Encoder
Selected bitrate                : 768 kBit/s
Quality                         : High
Add ID3 tag                     : No
Command line compressor         : C:\Program Files\Exact Audio Copy\FLAC\FLAC.EXE
Additional command line options : -8 -V -T "ARTIST=%a" -T "TITLE=%t" -T "ALBUM=%g" -T "DATE=%y" -T "TRACKNUMBER=%n" -T "TOTALTRACKS=%x" -T "GENRE=%m" -T "ALBUMARTIST=%v" -T "ALBUM ARTIST=%v" -T "COMMENT=EAC Secure Mode, Test & Copy, AccurateRip, FLAC -8" %s
TOC of the extracted CD
     Track |   Start  |  Length  | Start sector | End sector
    ---------------------------------------------------------
        1  |  0:00.00 |  4:06.05 |         0    |    18454
        2  |  4:06.05 |  4:54.50 |     18455    |    40554
        3  |  9:00.55 |  3:04.60 |     40555    |    54414
        4  | 12:05.40 |  4:34.42 |     54415    |    75006
        5  | 16:40.07 |  5:57.40 |     75007    |   101821
        6  | 22:37.47 |  5:16.00 |    101822    |   125521
        7  | 27:53.47 |  6:38.73 |    125522    |   155444
        8  | 34:32.45 |  3:55.22 |    155445    |   173091
        9  | 38:27.67 |  3:48.35 |    173092    |   190226
       10  | 42:16.27 |  5:28.30 |    190227    |   214856
Track  1
     Filename C:\EACRips\Tuck & Patti - Taking The Long Way Home (2000) [FLAC]\01 - Taking The Long Way Home.wav
     Pre-gap length  0:00:02.00
     Peak level 99.9 %
     Track quality 99.9 %
     Test CRC 28372B67
     Copy CRC 28372B67
     Accurately ripped (confidence 5)  [DDCC23F0]
     Copy OK
Track  2
     Filename C:\EACRips\Tuck & Patti - Taking The Long Way Home (2000) [FLAC]\02 - Ready To Love.wav
     Pre-gap length  0:00:01.73
     Peak level 100.0 %
     Track quality 100.0 %
     Test CRC FEAA4111
     Copy CRC FEAA4111
     Accurately ripped (confidence 6)  [27CDD033]
     Copy OK
Track  3
     Filename C:\EACRips\Tuck & Patti - Taking The Long Way Home (2000) [FLAC]\03 - Thank You.wav
     Pre-gap length  0:00:02.37
     Peak level 100.0 %
     Track quality 100.0 %
     Test CRC 977B0296
     Copy CRC 977B0296
     Accurately ripped (confidence 6)  [3633356A]
     Copy OK
Track  4
     Filename C:\EACRips\Tuck & Patti - Taking The Long Way Home (2000) [FLAC]\04 - Take This Feeling.wav
     Peak level 100.0 %
     Track quality 100.0 %
     Test CRC 975D2391
     Copy CRC 975D2391
     Accurately ripped (confidence 6)  [F8B99DAC]
     Copy OK
Track  5
     Filename C:\EACRips\Tuck & Patti - Taking The Long Way Home (2000) [FLAC]\05 - Song For The Souls.wav
     Pre-gap length  0:00:02.13
     Peak level 99.9 %
     Track quality 100.0 %
     Test CRC 723BB9EE
     Copy CRC 723BB9EE
     Accurately ripped (confidence 6)  [5FB020B5]
     Copy OK
Track  6
     Filename C:\EACRips\Tuck & Patti - Taking The Long Way Home (2000) [FLAC]\06 - Lifeline.wav
     Pre-gap length  0:00:02.53
     Peak level 100.0 %
     Track quality 100.0 %
     Test CRC D153AD26
     Copy CRC D153AD26
     Accurately ripped (confidence 6)  [3946ABDF]
     Copy OK
Track  7
     Filename C:\EACRips\Tuck & Patti - Taking The Long Way Home (2000) [FLAC]\07 - You Ain't Seen Nothing Yet.wav
     Pre-gap length  0:00:04.06
     Peak level 99.2 %
     Track quality 100.0 %
     Test CRC 187C3CE4
     Copy CRC 187C3CE4
     Accurately ripped (confidence 6)  [F8186282]
     Copy OK
Track  8
     Filename C:\EACRips\Tuck & Patti - Taking The Long Way Home (2000) [FLAC]\08 - Path To Peace.wav
     Pre-gap length  0:00:04.06
     Peak level 99.8 %
     Track quality 100.0 %
     Test CRC F6966724
     Copy CRC F6966724
     Accurately ripped (confidence 6)  [3A95408E]
     Copy OK
Track  9
     Filename C:\EACRips\Tuck & Patti - Taking The Long Way Home (2000) [FLAC]\09 - Early Morning Music Box.wav
     Pre-gap length  0:00:02.56
     Peak level 100.0 %
     Track quality 99.9 %
     Test CRC 633C32B9
     Copy CRC 633C32B9
     Accurately ripped (confidence 6)  [39D1E792]
     Copy OK
Track 10
     Filename C:\EACRips\Tuck & Patti - Taking The Long Way Home (2000) [FLAC]\10 - This Light This Life.wav
     Pre-gap length  0:00:04.42
     Peak level 100.0 %
     Track quality 99.9 %
     Test CRC 11D9CA2A
     Copy CRC 11D9CA2A
     Accurately ripped (confidence 6)  [CA20C396]
     Copy OK
All tracks accurately ripped
No errors occurred
End of status report
 
 
Содержание индексной карты (.CUE)
REM GENRE Jazz
REM DATE 2000
REM DISCID 800B300A
REM COMMENT "ExactAudioCopy v0.99pb5"
PERFORMER "Tuck & Patti"
TITLE "Taking the Long Way Home"
FILE "01 - Taking the Long Way Home.wav" WAVE
  TRACK 01 AUDIO
    TITLE "Taking the Long Way Home"
    PERFORMER "Tuck & Patti"
    INDEX 01 00:00:00
  TRACK 02 AUDIO
    TITLE "Ready to Love"
    PERFORMER "Tuck & Patti"
    INDEX 00 04:04:25
FILE "02 - Ready to Love.wav" WAVE
    INDEX 01 00:00:00
  TRACK 03 AUDIO
    TITLE "Thank You"
    PERFORMER "Tuck & Patti"
    INDEX 00 04:52:22
FILE "03 - Thank You.wav" WAVE
    INDEX 01 00:00:00
FILE "04 - Take This Feeling.wav" WAVE
  TRACK 04 AUDIO
    TITLE "Take This Feeling"
    PERFORMER "Tuck & Patti"
    INDEX 01 00:00:00
  TRACK 05 AUDIO
    TITLE "Song for the Souls"
    PERFORMER "Tuck & Patti"
    INDEX 00 04:32:32
FILE "05 - Song for the Souls.wav" WAVE
    INDEX 01 00:00:00
  TRACK 06 AUDIO
    TITLE "Lifeline"
    PERFORMER "Tuck & Patti"
    INDEX 00 05:55:00
FILE "06 - Lifeline.wav" WAVE
    INDEX 01 00:00:00
  TRACK 07 AUDIO
    TITLE "You Ain't Seen Nothing Yet"
    PERFORMER "Tuck & Patti"
    INDEX 00 05:11:70
FILE "07 - You Ain't Seen Nothing Yet.wav" WAVE
    INDEX 01 00:00:00
  TRACK 08 AUDIO
    TITLE "Path to Peace"
    PERFORMER "Tuck & Patti"
    INDEX 00 06:34:68
FILE "08 - Path to Peace.wav" WAVE
    INDEX 01 00:00:00
  TRACK 09 AUDIO
    TITLE "Early Morning Music Box"
    PERFORMER "Tuck & Patti"
    INDEX 00 03:52:55
FILE "09 - Early Morning Music Box.wav" WAVE
    INDEX 01 00:00:00
  TRACK 10 AUDIO
    TITLE "This Light This Life"
    PERFORMER "Tuck & Patti"
    INDEX 00 03:44:03
FILE "10 - This Light This Life.wav" WAVE
    INDEX 01 00:00:00
 
Отчет CUETools
[CUETools log; Date: 06.12.2013 18:05:05; Version: 2.1.4]
HDCD: peak extend: none, transient filter: none, gain: none
[CTDB TOCID: 6XGtiNGA91SWVn9vyHmoPRKPf1o-] found.
Track | CTDB Status
  1   | (3/3) Accurately ripped
  2   | (3/3) Accurately ripped
  3   | (3/3) Accurately ripped
  4   | (3/3) Accurately ripped
  5   | (3/3) Accurately ripped
  6   | (3/3) Accurately ripped
  7   | (3/3) Accurately ripped
  8   | (3/3) Accurately ripped
  9   | (3/3) Accurately ripped
 10   | (3/3) Accurately ripped
[AccurateRip ID: 001189d5-008e0726-800b300a] found.
Track   [  CRC   |   V2   ] Status
 01     [ddcc23f0|1271b192] (10+04/14) Accurately ripped
 02     [27cdd033|9391d298] (11+04/15) Accurately ripped
 03     [3633356a|71e37e51] (11+04/15) Accurately ripped
 04     [f8b99dac|c77ab27c] (11+04/15) Accurately ripped
 05     [5fb020b5|8cfd6031] (11+04/15) Accurately ripped
 06     [3946abdf|a5b17fa9] (11+04/15) Accurately ripped
 07     [f8186282|e31ded2a] (11+04/15) Accurately ripped
 08     [3a95408e|13ea12f1] (11+04/15) Accurately ripped
 09     [39d1e792|ff3dcef7] (11+04/15) Accurately ripped
 10     [ca20c396|2b79a874] (11+04/15) Accurately ripped
Track Peak [ CRC32  ] [W/O NULL] [  LOG   ]
 --  100,0 [0A6D5449] [CDEAD60F]
 01   99,9 [28372B67] [67A14E7A]   CRC32
 02  100,0 [FEAA4111] [C667DF13]   CRC32
 03  100,0 [977B0296] [5EC02748]   CRC32
 04  100,0 [975D2391] [9ADF6995]   CRC32
 05   99,9 [723BB9EE] [FE6C8854]   CRC32
 06  100,0 [D153AD26] [012E01B4]   CRC32
 07   99,2 [187C3CE4] [C3571300]   CRC32
 08   99,8 [F6966724] [3796EA63]   CRC32
 09  100,0 [633C32B9] [66E488DD]   CRC32
 10  100,0 [11D9CA2A] [C49F0F8B]   CRC32
 
Review by Jonathan Widran
It's ironic that the veteran husband and wife, electric guitar and vocal duo opens their liner notes with the disclaimer, "When we began making this CD, we had no particular destination in mind." Yet as you listen, you may assume some cataclysmic losses and other spiritual events had occurred in the duo's lives to prompt such an outpouring. The collection ranks as one of their richest, most spiritual yet, and the muse of spontaneity seems to have prompted not only their usual blend of emotional voice and guitar pleasantries but lyrics that resonate alone as poetry. They start out playfully, with Tuck's muted, jumpy lines dancing behind Patti's chipper intonations about strolling with "no hustle, no bustle, just eazin..." After the softhearted ballad "Ready to Love" (which mimics their classic "Takes My Breath Away" for pure romantic dreaminess), Patti advises us to say "thank you" to everyone "'cause when they're gone you won't get another chance to say..." This thought of appreciating every moment for it might fade away informs the rest of the disc, from the carpe diem sentiment of "Take This Feeling" to the haunting elegy "Song for the Souls That Go Before" and "You Ain't Seen Nothing Yet," which advises us in clever ways how to cultivate love so that it lasts forever. The lush, sentimental "Path to Peace" sums up this spiritual vibe perfectly. Patti is as always the dominant emotional force behind the duo, but Tuck lets us enjoy his plucky chops on the all-instrumental "Early Morning Music Box." Tuck and Patti are tremendously likeable, but their simple dual approach sometimes makes the songs blend into one another, despite variation in tone. So listen closely from track to track. That's the best way to ensure that you're getting the meaning behind the amazing lyrics.
Приватный:
Нет (DHT включён)
Размер:
284.69 Мб (298,521,823 байт) » файлов: 24
Участники:
0 раздают, 0 качают (0 участников всего)
Внешние участники:
3 раздают, 1 качают (4 участников всего) [ Обновить ]
Есть вопросы - пишите личное сообщение пользователю M0p94ok.
13:30
118
Нет комментариев. Ваш будет первым!