Поиск

1999 21st Century Swing Band - Millennium Swing {MCG Jazz} [CD]

1999 21st Century Swing Band - Millennium Swing {MCG Jazz} [CD]
Дата записи диска:
1 августа - 30 сентября 1999
Место записи:
Manchester Craftsmen's Guild, Pittsburgh, USA
Номер по каталогу:
MCG Jazz MCG 1007
Носитель:
CD
Тип рипа:
tracks+.cue
Аудиокодек:
FLAC (*.flac)
Битрейт аудио:
lossless
Время звучания:
00:45:48
Наличие сканов:
только обложка
Страна-производитель диска (релиза):
USA
Релизёр (источник):
just_a_sundog
Доп. инфо:

Группа The 21st Century Swing Band, основанная в 1998 году, впервые выступила в канун Нового года в рамках фестиваля First Night Pittsburgh '99. На памятной сессии в одном из самых известных достопримечательностей Питтсбурга, отеле Westin William Penn, руководитель группы Марти Эшби из Манчестерской гильдии мастеров собрал одних из лучших джазовых музыкантов Западной Пенсильвании. Ким Назарян из отмеченной наградами группы New York Voices присоединился к выступлению.
С момента своего создания эта группа из 10 человек выступала на местном уровне в рамках Jazz at Gretna at the Mt. Gretna Playhouse, на джазовом фестивале Seven Springs и по всей стране на различных площадках.
После такого успешного дебюта на First Night Pittsburgh '99 группа повторит свое выступление на First Night Pittsburgh 2000, чтобы вступить в новое тысячелетие. В то время как 21 век сталкивается с внешним миром, танцоры ощутят стремительный пульс и беззаботное веселье джаза. Возможность играть и танцевать всю ночь напролет, зная, что 2000 год начнется завтра, будет уникальным событием.
Millennium Swing был создан специально на память о Первой ночи в Питтсбурге и на память для посетителей Первой ночи в Питтсбурге. Тринадцать горячих вокальных и инструментальных композиций, собранных на этом компакт-диске, открывают региональный джаз нового тысячелетия.
Полированный пол бального зала светится. Манит первая нота саксофона. Приглушите свет, и ритмы 21st Century Swing Band перенесут вас в канун Нового 1999 года. Здесь мы снова захватили магию.

Лог создания рипа
Exact Audio Copy V1.3 from 2. September 2016

EAC extraction logfile from 3. June 2020, 8:21

21st Century Swing Band / Millennium Swing

Used drive  : PIONEER BD-RW   BDR-UD03   Adapter: 1  ID: 0

Read mode               : Secure
Utilize accurate stream : Yes
Defeat audio cache      : Yes
Make use of C2 pointers : No

Read offset correction                      : 667
Overread into Lead-In and Lead-Out          : No
Fill up missing offset samples with silence : Yes
Delete leading and trailing silent blocks   : No
Null samples used in CRC calculations       : Yes
Used interface                              : Native Win32 interface for Win NT & 2000
Gap handling                                : Appended to previous track

Used output format              : User Defined Encoder
Selected bitrate                : 1024 kBit/s
Quality                         : High
Add ID3 tag                     : No
Command line compressor         : C:\EAC\Flac\flac.exe
Additional command line options : -8 -V -T "ARTIST=%artist%" -T "TITLE=%title%" -T "ALBUM=%albumtitle%" -T "DATE=%year%" -T "TRACKNUMBER=%tracknr%" -T "GENRE=%genre%" -T "PERFORMER=%albuminterpret%" -T "COMPOSER=%composer%" %haslyrics%--tag-from-file=LYRICS="%lyricsfile%"%haslyrics% -T "ALBUMARTIST=%albumartist%" -T "DISCNUMBER=%cdnumber%" -T "TOTALDISCS=%totalcds%" -T "TOTALTRACKS=%numtracks%" -T "COMMENT=%comment%" %source% -o %dest%

TOC of the extracted CD

     Track |   Start  |  Length  | Start sector | End sector
    ---------------------------------------------------------
        1  |  0:00.00 |  4:15.71 |         0    |    19195
        2  |  4:15.71 |  4:03.00 |     19196    |    37420
        3  |  8:18.71 |  2:32.57 |     37421    |    48877
        4  | 10:51.53 |  3:25.39 |     48878    |    64291
        5  | 14:17.17 |  3:13.69 |     64292    |    78835
        6  | 17:31.11 |  3:27.62 |     78836    |    94422
        7  | 20:58.73 |  4:47.21 |     94423    |   115968
        8  | 25:46.19 |  3:27.65 |    115969    |   131558
        9  | 29:14.09 |  3:00.40 |    131559    |   145098
       10  | 32:14.49 |  3:27.09 |    145099    |   160632
       11  | 35:41.58 |  3:14.60 |    160633    |   175242
       12  | 38:56.43 |  4:28.31 |    175243    |   195373
       13  | 43:24.74 |  2:22.34 |    195374    |   206057

Track  1

     Filename C:\EAC\Rips\21st Century Swing Band - Millennium Swing (2000) [FLAC]\01 - Bennie's From Heaven.wav

     Pre-gap length  0:00:02.00

     Peak level 100.0 %
     Extraction speed 2.5 X
     Track quality 99.9 %
     Test CRC 0634DA65
     Copy CRC 0634DA65
     Track not present in AccurateRip database
     Copy OK

Track  2

     Filename C:\EAC\Rips\21st Century Swing Band - Millennium Swing (2000) [FLAC]\02 - It Don't Mean a Thing If It Ain't Got That Swing.wav

     Pre-gap length  0:00:02.46

     Peak level 100.0 %
     Extraction speed 2.8 X
     Track quality 99.9 %
     Test CRC F929BCE3
     Copy CRC F929BCE3
     Track not present in AccurateRip database
     Copy OK

Track  3

     Filename C:\EAC\Rips\21st Century Swing Band - Millennium Swing (2000) [FLAC]\03 - Steppin' Out With My Baby.wav

     Pre-gap length  0:00:03.54

     Peak level 100.0 %
     Extraction speed 3.1 X
     Track quality 100.0 %
     Test CRC C1B4E43D
     Copy CRC C1B4E43D
     Track not present in AccurateRip database
     Copy OK

Track  4

     Filename C:\EAC\Rips\21st Century Swing Band - Millennium Swing (2000) [FLAC]\04 - I'm Gonna Move.wav

     Pre-gap length  0:00:02.65

     Peak level 100.0 %
     Extraction speed 3.0 X
     Track quality 99.9 %
     Test CRC 69CD004C
     Copy CRC 69CD004C
     Track not present in AccurateRip database
     Copy OK

Track  5

     Filename C:\EAC\Rips\21st Century Swing Band - Millennium Swing (2000) [FLAC]\05 - Opus 1.wav

     Pre-gap length  0:00:03.46

     Peak level 99.9 %
     Extraction speed 3.6 X
     Track quality 100.0 %
     Test CRC D176E890
     Copy CRC D176E890
     Track not present in AccurateRip database
     Copy OK

Track  6

     Filename C:\EAC\Rips\21st Century Swing Band - Millennium Swing (2000) [FLAC]\06 - 7 Come 11.wav

     Pre-gap length  0:00:02.74

     Peak level 100.0 %
     Extraction speed 3.3 X
     Track quality 99.9 %
     Test CRC 80736188
     Copy CRC 80736188
     Track not present in AccurateRip database
     Copy OK

Track  7

     Filename C:\EAC\Rips\21st Century Swing Band - Millennium Swing (2000) [FLAC]\07 - When I Fall in Love.wav

     Pre-gap length  0:00:02.73

     Peak level 79.4 %
     Extraction speed 4.1 X
     Track quality 100.0 %
     Test CRC 9A96217B
     Copy CRC 9A96217B
     Track not present in AccurateRip database
     Copy OK

Track  8

     Filename C:\EAC\Rips\21st Century Swing Band - Millennium Swing (2000) [FLAC]\08 - String of Pearls.wav

     Pre-gap length  0:00:02.65

     Peak level 79.4 %
     Extraction speed 4.1 X
     Track quality 100.0 %
     Test CRC CB95A2F6
     Copy CRC CB95A2F6
     Track not present in AccurateRip database
     Copy OK

Track  9

     Filename C:\EAC\Rips\21st Century Swing Band - Millennium Swing (2000) [FLAC]\09 - All Shook-Up.wav

     Pre-gap length  0:00:02.68

     Peak level 99.9 %
     Extraction speed 4.2 X
     Track quality 100.0 %
     Test CRC F9C78432
     Copy CRC F9C78432
     Track not present in AccurateRip database
     Copy OK

Track 10

     Filename C:\EAC\Rips\21st Century Swing Band - Millennium Swing (2000) [FLAC]\10 - Sweet Lorraine.wav

     Pre-gap length  0:00:03.02

     Peak level 100.0 %
     Extraction speed 3.9 X
     Track quality 99.9 %
     Test CRC DBE011B7
     Copy CRC DBE011B7
     Track not present in AccurateRip database
     Copy OK

Track 11

     Filename C:\EAC\Rips\21st Century Swing Band - Millennium Swing (2000) [FLAC]\11 - Sing, Sing, Sing.wav

     Pre-gap length  0:00:03.25

     Peak level 79.4 %
     Extraction speed 4.5 X
     Track quality 100.0 %
     Test CRC 25FE2EA2
     Copy CRC 25FE2EA2
     Track not present in AccurateRip database
     Copy OK

Track 12

     Filename C:\EAC\Rips\21st Century Swing Band - Millennium Swing (2000) [FLAC]\12 - I Mean You.wav

     Pre-gap length  0:00:03.81

     Peak level 100.0 %
     Extraction speed 4.8 X
     Track quality 100.0 %
     Test CRC 266608B5
     Copy CRC 266608B5
     Track not present in AccurateRip database
     Copy OK

Track 13

     Filename C:\EAC\Rips\21st Century Swing Band - Millennium Swing (2000) [FLAC]\13 - Drum Boogie.wav

     Pre-gap length  0:00:03.05

     Peak level 100.0 %
     Extraction speed 3.8 X
     Track quality 99.9 %
     Test CRC F1051F89
     Copy CRC F1051F89
     Track not present in AccurateRip database
     Copy OK

None of the tracks are present in the AccurateRip database

No errors occurred

End of status report

---- CUETools DB Plugin V2.1.6

[CTDB TOCID: TOPQC2_0JNgUurnHYlIFE1pDfhE-] disk not present in database
Submit result: TOPQC2_0JNgUurnHYlIFE1pDfhE- has been uploaded

==== Log checksum 6A0A0A7F33C0378A81BAD1FD65F1EC43D5B401B7A7A3B9673214E9F1C5769A0E ====
No seeders - write personal message to M0p94ok. Any questions - support@pro-jazz.com.
Нет сидеров - пишите в личку M0p94ok. Есть вопросы - support@pro-jazz.com
18:17
65
Нет комментариев. Ваш будет первым!