Поиск

1998 Michel Petrucciani - Both Worlds {Dreyfus Jazz FDM 36590-2}

1998 Michel Petrucciani - Both Worlds {Dreyfus Jazz FDM 36590-2}
Стили:
Дата издания диска:
17 марта 1998
Издатель (лейбл):
Номер по каталогу:
FDM 36590-2
Носитель:
CD
Битрейт аудио:
lossless
Аудиокодек:
FLAC (*.flac)
Тип рипа:
tracks
Время звучания:
00:49:44
Наличие сканов:
  • нет
Релизёр (источник):
hvilon
Треклист:

01. 35 Seconds Of Music And More (5:24)
02. Brazilian Like (4:47)
03. Training (3:58)
04. Colors (6:58)
05. Petite Louise (5:25)
06. Chloe Meets Gershwin (6:14)
07. Chimes (5:11)
08. Guadeloupe (6:12)
09. On Top Of The Roof (5:35)

Состав:
  • Michel Petrucciani — Piano
  • Stefano Di Battista — Soprano & Alto Saxophones
  • Flavio Boltro — Trumpet
  • Bob Brookmeyer — Trombone
  • Anthony Jackson — Bass
  • Steve Gadd — Drums
  • Yves Chamberland Producer
  • Francis Dreyfus Producer
Лог создания рипа
Exact Audio Copy V0.99 prebeta 1 from 25. May 2007
Отчёт EAC об извлечении, выполненном 31. августа 2007, 11:43
Michel Petrucciani / Both Worlds
Дисковод: _NEC DVD_RW ND-4570A Adapter: 1 ID: 1
Режим чтения : Достоверность
Использование точного потока : Да
Отключение кэша аудио : Нет
Использование указателей C2 : Нет
Комбинированное смещение чтения/записи : 0
Способность читать области Lead-in и Lead-out : Нет
Заполнение пропущенных сэмплов тишиной : Да
Удаление блоков с тишиной в начале и конце : Нет
Интерфейс : Установленный внешний ASPI-интерфейс
Обработка зазоров : Не обнаружено, добавлено к предыдущему треку
Выходной формат : Пользовательский кодировщик
Выбранный битрейт : 1024 kBit/s
Качество : Высокий
Добавление ID3-тэга : Да
Утилита сжатия : C:\Program Files\Exact Audio Copy\flac-1.2.0-win\bin\flac.exe
Дополнительные параметры : -8 -V -T "artist=%a" -T "title=%t" -T "album=%g" -T "date=%y" -T "tracknumber=%n" -T "genre=%m" -T "comment=Innochka" %s
TOC извлечённого CD
Трек | Старт | Длительность | Начальный сектор | Конечный сектор
---------------------------------------------------------------------
1 | 0:00.00 | 5:24.50 | 0 | 24349
2 | 5:24.50 | 4:47.65 | 24350 | 45939
3 | 10:12.40 | 3:58.70 | 45940 | 63859
4 | 14:11.35 | 6:58.48 | 63860 | 95257
5 | 21:10.08 | 5:25.35 | 95258 | 119667
6 | 26:35.43 | 6:14.25 | 119668 | 147742
7 | 32:49.68 | 5:11.47 | 147743 | 171114
8 | 38:01.40 | 6:12.25 | 171115 | 199039
9 | 44:13.65 | 5:35.52 | 199040 | 224216
Трек 1
Имя файла G:\Imidg\На будущее\Petrucciani\Petrucciani - Both Worlds\01 - 35 Seconds Of Music And More.wav
Пиковый уровень 100.0 %
Качество трека 100.0 %
CRC копии B7A0DC5A
Копирование... OK
Трек 2
Имя файла G:\Imidg\На будущее\Petrucciani\Petrucciani - Both Worlds\02 - Brazilian Like.wav
Пиковый уровень 100.0 %
Качество трека 100.0 %
CRC копии 6933A75F
Копирование... OK
Трек 3
Имя файла G:\Imidg\На будущее\Petrucciani\Petrucciani - Both Worlds\03 - Training.wav
Пиковый уровень 100.0 %
Качество трека 100.0 %
CRC копии 5B2C6B6F
Копирование... OK
Трек 4
Имя файла G:\Imidg\На будущее\Petrucciani\Petrucciani - Both Worlds\04 - Colors.wav
Пиковый уровень 100.0 %
Качество трека 100.0 %
CRC копии 44A89C49
Копирование... OK
Трек 5
Имя файла G:\Imidg\На будущее\Petrucciani\Petrucciani - Both Worlds\05 - Petite Louise.wav
Пиковый уровень 100.0 %
Качество трека 100.0 %
CRC копии 18617337
Копирование... OK
Трек 6
Имя файла G:\Imidg\На будущее\Petrucciani\Petrucciani - Both Worlds\06 - Chloe Meets Gershwin.wav
Пиковый уровень 100.0 %
Качество трека 100.0 %
CRC копии 83A5AE70
Копирование... OK
Трек 7
Имя файла G:\Imidg\На будущее\Petrucciani\Petrucciani - Both Worlds\07 - Chimes.wav
Пиковый уровень 100.0 %
Качество трека 100.0 %
CRC копии 8B21C157
Копирование... OK
Трек 8
Имя файла G:\Imidg\На будущее\Petrucciani\Petrucciani - Both Worlds\08 - Guadeloupe.wav
Пиковый уровень 100.0 %
Качество трека 100.0 %
CRC копии 85EDDD22
Копирование... OK
Трек 9
Имя файла G:\Imidg\На будущее\Petrucciani\Petrucciani - Both Worlds\09 - On Top Of The Roof.wav
Пиковый уровень 100.0 %
Качество трека 99.9 %
CRC копии 2DDAFBAD
Копирование... OK
Ошибок не произошло
Конец отчёта
Приватный:
Нет (DHT включён)
Размер:
300.89 Мб (315,505,797 байт) » файлов: 12
Участники:
0 раздают, 0 качают (0 участников всего)
Внешние участники:
3 раздают, 1 качают (4 участников всего) [ Обновить ]
19:10
154
RSS
Нет комментариев. Ваш будет первым!