Поиск

1997 Doug Cameron - Passport {Higher Octave 7101}

1997 Doug Cameron - Passport {Higher Octave 7101}
Дата издания диска:
15 апреля 1997
Издатель (лейбл):
Номер по каталогу:
7101
Носитель:
CD
Тип рипа:
tracks+.cue
Аудиокодек:
FLAC (*.flac)
Битрейт аудио:
1
Время звучания:
51:55
Релизёр (источник):
Аndy

Треклист:

01 - Passport [06:05]
02 - Breathe Again [04:22]
03 - People Make The World Go 'Round [08:35]
04 - Maldives [04:49]
05 - Old San Juan [05:24]
06 - African Lullaby [05:51]
07 - Masai Mara [05:13]
08 - Truth [04:09]
09 - La Guaira [05:31]
10 - Madagascar [01:53]

Лог создания рипа
Exact Audio Copy V0.99 prebeta 5 from 4. May 2009

EAC extraction logfile from 29. August 2010, 11:27

Doug Cameron / Passport

Used drive  : Optiarc DVD RW AD-7170A   Adapter: 1  ID: 1

Read mode               : Secure
Utilize accurate stream : Yes
Defeat audio cache      : Yes
Make use of C2 pointers : No

Read offset correction                      : 48
Overread into Lead-In and Lead-Out          : No
Fill up missing offset samples with silence : Yes
Delete leading and trailing silent blocks   : No
Null samples used in CRC calculations       : Yes
Used interface                              : Native Win32 interface for Win NT & 2000

Used output format              : User Defined Encoder
Selected bitrate                : 128 kBit/s
Quality                         : High
Add ID3 tag                     : No
Command line compressor         : C:\Program Files\FLAC\flac.exe
Additional command line options : -5 -V -T "ARTIST=%a" -T "TITLE=%t" -T "ALBUM=%g" -T "DATE=%y" -T "TRACKNUMBER=%n" -T "GENRE=%m" -T "COMMENT=Ripped by andygrakoff aka yetiisyou" %s

TOC of the extracted CD

     Track |   Start  |  Length  | Start sector | End sector
    ---------------------------------------------------------
        1  |  0:00.00 |  6:05.34 |         0    |    27408
        2  |  6:05.34 |  4:22.13 |     27409    |    47071
        3  | 10:27.47 |  8:35.06 |     47072    |    85702
        4  | 19:02.53 |  4:49.01 |     85703    |   107378
        5  | 23:51.54 |  5:24.23 |    107379    |   131701
        6  | 29:16.02 |  5:51.15 |    131702    |   158041
        7  | 35:07.17 |  5:13.08 |    158042    |   181524
        8  | 40:20.25 |  4:09.45 |    181525    |   200244
        9  | 44:29.70 |  5:31.45 |    200245    |   225114
       10  | 50:01.40 |  1:53.57 |    225115    |   233646

Range status and errors

Selected range

     Filename E:\!Rips\Doug Cameron - Passport 1997 (VHOCD26)\Doug Cameron - Passport.wav

     Peak level 99.4 %
     Range quality 100.0 %
     Test CRC 6C4A7338
     Copy CRC 6C4A7338
     Copy OK

No errors occurred

AccurateRip summary

Track  1  not present in database
Track  2  not present in database
Track  3  not present in database
Track  4  not present in database
Track  5  not present in database
Track  6  not present in database
Track  7  not present in database
Track  8  not present in database
Track  9  not present in database
Track 10  not present in database

None of the tracks are present in the AccurateRip database

End of status report
Содержание индексной карты (.CUE)
REM GENRE Fusion
REM DATE 1997
REM DISCID 790C2B0A
REM COMMENT "ExactAudioCopy v0.99pb5"
PERFORMER "Doug Cameron"
TITLE "Passport"
FILE "Doug Cameron - Passport.flac" WAVE
  TRACK 01 AUDIO
    TITLE "Passport"
    PERFORMER "Doug Cameron"
    INDEX 01 00:00:00
  TRACK 02 AUDIO
    TITLE "Breathe Again"
    PERFORMER "Doug Cameron"
    INDEX 01 06:05:34
  TRACK 03 AUDIO
    TITLE "People Make The World Go 'Round"
    PERFORMER "Doug Cameron"
    INDEX 01 10:27:47
  TRACK 04 AUDIO
    TITLE "Maldives"
    PERFORMER "Doug Cameron"
    INDEX 01 19:02:53
  TRACK 05 AUDIO
    TITLE "Old San Juan"
    PERFORMER "Doug Cameron"
    INDEX 01 23:51:54
  TRACK 06 AUDIO
    TITLE "African Lullaby"
    PERFORMER "Doug Cameron"
    INDEX 01 29:16:02
  TRACK 07 AUDIO
    TITLE "Masai Mara"
    PERFORMER "Doug Cameron"
    INDEX 01 35:07:17
  TRACK 08 AUDIO
    TITLE "Truth"
    PERFORMER "Doug Cameron"
    INDEX 01 40:20:25
  TRACK 09 AUDIO
    TITLE "La Guaira"
    PERFORMER "Doug Cameron"
    INDEX 01 44:29:70
  TRACK 10 AUDIO
    TITLE "Madagascar"
    PERFORMER "Doug Cameron"
    INDEX 01 50:01:40
Приватный:
Нет (DHT включён)
Размер:
325.22 Мб (341,012,916 байт) » файлов: 13
Участники:
3 раздают, 5 качают (8 участников всего)
Внешние участники:
5 раздают, 1 качают (6 участников всего) [ Обновить ]
Скорость:
326.40 Кб/c 0/c
Есть вопросы - пишите личное сообщение пользователю M0p94ok.
17:16
423
Нет комментариев. Ваш будет первым!