Поиск

1996 Oscar Peterson - The Song Is You: Best Of The Verve Songbooks (2CD) {PolyGram 314 531 558-2}

1996 Oscar Peterson - The Song Is You: Best Of The Verve Songbooks (2CD) {PolyGram 314 531 558-2}
Страна-производитель диска (релиза):
Canada
Дата записи диска:
декабрь 1952 - август 1959
Дата издания диска:
21 мая 1996
Номер по каталогу:
314 531 558-2
Носитель:
CD
Битрейт аудио:
lossless
Аудиокодек:
APE (*.ape)
Тип рипа:
image+.cue
Время звучания:
Disc One - 60:39 / Disc Two - 57:31
Наличие сканов:
  • да
Релизёр (источник):
alexsor
Треклист:

CD 01
01. Cheek To Cheek [03:03]
02. It Ain't Necessarily So [03:16]
03. Just A-Sttin' And A-Rockin' [03:43]
04. What Is This Thing Called Love? [03:10]
05. Prelude To A Kiss [03:19]
06. Fascinating Rhythm [02:58]
07. Easter Parade [03:15]
08. Night And Day [03:42]
09. Long Ago And Far Away [03:48]
10. Tea For Two [06:09.13]
11. The Song Is You [02:27]
12. Without A Song [02:58]
13. I Want To Be Happy [05:36]
14. The Lady Is A Tramp [02:56]
15. Blue Moon [02:56]
16. Lover [07:15]

CD 02
01. I Only Have Eyes For You [04:09]
02. I Gotta Right To Sing The Blues [05:08]
03. You Must Have Been A Beautiful Baby [04:07]
04. Come Rain Or Come Shine [04:30]
05. I Can't Give You Anything But Love [05:26]
06. I'm In The Mood For Love [03:55]
07. John Hardy's Wife [02:35]
08. I Got It Bad (And That Ain't Good) [03:10]
09. That Old Black Magic [03:05]
10. A Foggy Day [02:54]
11. I Coudn't Sleep A Wink Last Night [02:44]
12. Blue Moon [02:44]
13. Serenade In Blue [03:11]
14. Love For Sale [03:29]
15. The Song Is Ended [02:59]
16. Yesterdays [03:17]

Состав:
  • Ray Brown Bass
  • Herb Ellis Guitar
  • Norman Granz Producer
  • Barney Kessel Guitar
  • Aric Lach Morrison Producer
  • Richard Palmer Liner Notes, Selection
  • Oscar Peterson Piano
  • Jessica Raimi Producer
  • Ed Thigpen Drums
Лог создания рипа
<spoiler title="Логи создания рипа"><spoiler title="CD 01"><pre>Exact Audio Copy V0.99 prebeta 3 from 28. July 2007
Отчёт EAC об извлечении, выполненном 26. декабря 2007, 12:44
Oscar Peterson / The Song Is You, Best Of The Verve Songbooks (Disc One)
Дисковод: Optiarc DVD RW AD-7170S Adapter: 2 ID: 0
Режим чтения : Достоверность
Использование точного потока : Да
Отключение кэша аудио : Да
Использование указателей C2 : Нет
Коррекция смещения при чтении : 48
Способность читать области Lead-in и Lead-out : Нет
Заполнение пропущенных сэмплов тишиной : Да
Удаление блоков с тишиной в начале и конце : Нет
При вычислениях CRC использовались нулевые сэмплы : Нет
Интерфейс : Установленный внешний ASPI-интерфейс
Выходной формат : Monkey's Audio Lossless Encoder v3.99 DLL
Формат сэмплов : Normal Lossless Compression
TOC извлечённого CD
Трек | Старт | Длительность | Начальный сектор | Конечный сектор
---------------------------------------------------------------------
1 | 0:00.00 | 3:03.07 | 0 | 13731
2 | 3:03.07 | 3:16.73 | 13732 | 28504
3 | 6:20.05 | 3:43.40 | 28505 | 45269
4 | 10:03.45 | 3:10.55 | 45270 | 59574
5 | 13:14.25 | 3:19.07 | 59575 | 74506
6 | 16:33.32 | 2:58.68 | 74507 | 87924
7 | 19:32.25 | 3:15.52 | 87925 | 102601
8 | 22:48.02 | 3:42.40 | 102602 | 119291
9 | 26:30.42 | 3:48.03 | 119292 | 136394
10 | 30:18.45 | 6:09.10 | 136395 | 164079
11 | 36:27.55 | 2:27.47 | 164080 | 175151
12 | 38:55.27 | 2:58.05 | 175152 | 188506
13 | 41:53.32 | 5:36.68 | 188507 | 213774
14 | 47:30.25 | 2:56.20 | 213775 | 226994
15 | 50:26.45 | 2:56.60 | 226995 | 240254
16 | 53:23.30 | 7:15.25 | 240255 | 272904
Характеристики диапазона извлечения и сообщения об ошибках
Выбранный диапазон
Имя файла C:\EAC\Oscar Peterson - The Song Is You, Best Of The Verve Songbooks (Disc One).ape
Пиковый уровень 100.0 %
Качество диапазона 99.9 %
CRC копии 6951294F
Копирование... OK
Ошибок не произошло
Конец отчёта</pre></spoiler><spoiler title="CD 02"><pre>Exact Audio Copy V0.99 prebeta 3 from 28. July 2007
Отчёт EAC об извлечении, выполненном 26. декабря 2007, 13:28
Oscar Peterson / The Song Is You, Best Of The Verve Songbooks (Disc Two)
Дисковод: Optiarc DVD RW AD-7170S Adapter: 2 ID: 0
Режим чтения : Достоверность
Использование точного потока : Да
Отключение кэша аудио : Да
Использование указателей C2 : Нет
Коррекция смещения при чтении : 48
Способность читать области Lead-in и Lead-out : Нет
Заполнение пропущенных сэмплов тишиной : Да
Удаление блоков с тишиной в начале и конце : Нет
При вычислениях CRC использовались нулевые сэмплы : Нет
Интерфейс : Установленный внешний ASPI-интерфейс
Выходной формат : Monkey's Audio Lossless Encoder v3.99 DLL
Формат сэмплов : Normal Lossless Compression
TOC извлечённого CD
Трек | Старт | Длительность | Начальный сектор | Конечный сектор
---------------------------------------------------------------------
1 | 0:00.00 | 4:09.65 | 0 | 18739
2 | 4:09.65 | 5:08.45 | 18740 | 41884
3 | 9:18.35 | 4:07.70 | 41885 | 60479
4 | 13:26.30 | 4:30.07 | 60480 | 80736
5 | 17:56.37 | 5:26.30 | 80737 | 105216
6 | 23:22.67 | 3:55.40 | 105217 | 122881
7 | 27:18.32 | 2:35.28 | 122882 | 134534
8 | 29:53.60 | 3:10.50 | 134535 | 148834
9 | 33:04.35 | 3:05.72 | 148835 | 162781
10 | 36:10.32 | 2:54.23 | 162782 | 175854
11 | 39:04.55 | 2:44.10 | 175855 | 188164
12 | 41:48.65 | 2:44.67 | 188165 | 200531
13 | 44:33.57 | 3:11.13 | 200532 | 214869
14 | 47:44.70 | 3:29.12 | 214870 | 230556
15 | 51:14.07 | 2:59.63 | 230557 | 244044
16 | 54:13.70 | 3:17.10 | 244045 | 258829
Характеристики диапазона извлечения и сообщения об ошибках
Выбранный диапазон
Имя файла C:\EAC\Oscar Peterson - The Song Is You, Best Of The Verve Songbooks (Disc Two).ape
Пиковый уровень 100.0 %
Качество диапазона 99.9 %
CRC копии CBFB86C0
Копирование... OK
Ошибок не произошло
Конец отчёта</pre></spoiler></spoiler>
Приватный:
Нет (DHT включён)
Размер:
459.38 Мб (481,693,176 байт) » файлов: 24
Участники:
0 раздают, 0 качают (0 участников всего)
Внешние участники:
Нет внешних трекеров [ Обновить ]
23:43
49
RSS
Нет комментариев. Ваш будет первым!