Поиск

1996 Jimmie Lunceford and His Orchestra - 1941-1945 {The Chronological Classics CC862} [CD]

1996 Jimmie Lunceford and His Orchestra - 1941-1945 {The Chronological Classics CC862} [CD]
Стили:
Издатель (лейбл):
Номер по каталогу:
CC862
Битрейт аудио:
lossless
Доп. инфо:

Носитель: CD
Страна-производитель диска (релиза): France
Год издания: 1996
Страна исполнителя (группы): US
Аудиокодек: FLAC (*.flac)
Тип рипа: tracks+.cue
Продолжительность: 00:59:10
Наличие сканов в содержимом раздачи: нет

Лог создания рипа
Exact Audio Copy V1.3 from 2. September 2016
EAC extraction logfile from 13. April 2019, 18:34
Jimmie Lunceford & His Orchestra / The Chronological Classics: 1941-1945
Used drive  : PLEXTOR DVDR   PX-891SA   Adapter: 1  ID: 0
Read mode               : Secure
Utilize accurate stream : Yes
Defeat audio cache      : Yes
Make use of C2 pointers : No
Read offset correction                      : 6
Overread into Lead-In and Lead-Out          : No
Fill up missing offset samples with silence : Yes
Delete leading and trailing silent blocks   : No
Null samples used in CRC calculations       : Yes
Used interface                              : Native Win32 interface for Win NT & 2000
Gap handling                                : Appended to previous track
Used output format              : User Defined Encoder
Selected bitrate                : 1024 kBit/s
Quality                         : High
Add ID3 tag                     : No
Command line compressor         : C:\Program Files (x86)\Exact Audio Copy\FLAC\FLAC.EXE
Additional command line options : -8 -V -T "ARTIST=%artist%" -T "TITLE=%title%" -T "ALBUM=%albumtitle%" -T "DATE=%year%" -T "TRACKNUMBER=%tracknr%" -T "GENRE=%genre%" -T "COMMENT=%comment%" -T "BAND=%albuminterpret%" -T "ALBUMARTIST=%albuminterpret%" -T "COMPOSER=%composer%" %haslyrics%--tag-from-file=LYRICS="%lyricsfile%"%haslyrics% -T "DISCNUMBER=%cdnumber%" -T "TOTALDISCS=%totalcds%" -T "TOTALTRACKS=%numtracks%" %hascover%--picture="%coverfile%"%hascover% %source% -o %dest%
TOC of the extracted CD
     Track |   Start  |  Length  | Start sector | End sector
    ---------------------------------------------------------
        1  |  0:00.32 |  3:22.25 |        32    |    15206
        2  |  3:22.57 |  2:40.63 |     15207    |    27269
        3  |  6:03.45 |  3:10.40 |     27270    |    41559
        4  |  9:14.10 |  3:12.52 |     41560    |    56011
        5  | 12:26.62 |  2:59.15 |     56012    |    69451
        6  | 15:26.02 |  2:39.60 |     69452    |    81436
        7  | 18:05.62 |  3:04.23 |     81437    |    95259
        8  | 21:10.10 |  2:23.42 |     95260    |   106026
        9  | 23:33.52 |  3:10.58 |    106027    |   120334
       10  | 26:44.35 |  3:01.65 |    120335    |   133974
       11  | 29:46.25 |  3:12.22 |    133975    |   148396
       12  | 32:58.47 |  2:49.30 |    148397    |   161101
       13  | 35:48.02 |  2:56.65 |    161102    |   174366
       14  | 38:44.67 |  3:00.53 |    174367    |   187919
       15  | 41:45.45 |  2:55.10 |    187920    |   201054
       16  | 44:40.55 |  3:06.47 |    201055    |   215051
       17  | 47:47.27 |  2:28.15 |    215052    |   226166
       18  | 50:15.42 |  3:05.55 |    226167    |   240096
       19  | 53:21.22 |  3:03.33 |    240097    |   253854
       20  | 56:24.55 |  2:45.52 |    253855    |   266281
Track  1
     Filename H:\Torrents\Lunceford, Jimmie\Jimmie Lunceford & His Orchestra (1996) [CLASSICS 862] The Chronological Classics - 1941-1945\01. Jimmie Lunceford & His Orchestra - I'm Losing My Mind (Because of You).wav
     Pre-gap length  0:00:02.32
     Peak level 98.1 %
     Extraction speed 4.9 X
     Track quality 100.0 %
     Test CRC 5FE13924
     Copy CRC 5FE13924
     Accurately ripped (confidence 1)  [16569C6D]  (AR v2)
     Copy OK
Track  2
     Filename H:\Torrents\Lunceford, Jimmie\Jimmie Lunceford & His Orchestra (1996) [CLASSICS 862] The Chronological Classics - 1941-1945\02. Jimmie Lunceford & His Orchestra - Life Is Fine.wav
     Pre-gap length  0:00:02.00
     Peak level 81.7 %
     Extraction speed 5.1 X
     Track quality 100.0 %
     Test CRC CD4AC0C9
     Copy CRC CD4AC0C9
     Accurately ripped (confidence 1)  [CA8D640E]  (AR v2)
     Copy OK
Track  3
     Filename H:\Torrents\Lunceford, Jimmie\Jimmie Lunceford & His Orchestra (1996) [CLASSICS 862] The Chronological Classics - 1941-1945\03. Jimmie Lunceford & His Orchestra - It Had to Be You.wav
     Pre-gap length  0:00:02.00
     Peak level 99.5 %
     Extraction speed 4.6 X
     Track quality 99.9 %
     Test CRC BA5C11C8
     Copy CRC BA5C11C8
     Accurately ripped (confidence 1)  [7312E2FE]  (AR v2)
     Copy OK
Track  4
     Filename H:\Torrents\Lunceford, Jimmie\Jimmie Lunceford & His Orchestra (1996) [CLASSICS 862] The Chronological Classics - 1941-1945\04. Jimmie Lunceford & His Orchestra - I'm Gonna Move to the Outskirts of Town - Part 1.wav
     Pre-gap length  0:00:02.00
     Peak level 99.9 %
     Extraction speed 6.0 X
     Track quality 100.0 %
     Test CRC 510B3AB4
     Copy CRC 510B3AB4
     Accurately ripped (confidence 1)  [D821B9EE]  (AR v2)
     Copy OK
Track  5
     Filename H:\Torrents\Lunceford, Jimmie\Jimmie Lunceford & His Orchestra (1996) [CLASSICS 862] The Chronological Classics - 1941-1945\05. Jimmie Lunceford & His Orchestra - I'm Gonna Move to the Outskirts of Town - Part 2.wav
     Pre-gap length  0:00:02.00
     Peak level 96.9 %
     Extraction speed 4.9 X
     Track quality 99.9 %
     Test CRC AB009304
     Copy CRC AB009304
     Accurately ripped (confidence 1)  [F4C7A922]  (AR v2)
     Copy OK
Track  6
     Filename H:\Torrents\Lunceford, Jimmie\Jimmie Lunceford & His Orchestra (1996) [CLASSICS 862] The Chronological Classics - 1941-1945\06. Jimmie Lunceford & His Orchestra - Strictly Instrumental.wav
     Pre-gap length  0:00:02.00
     Peak level 99.9 %
     Extraction speed 5.0 X
     Track quality 99.9 %
     Test CRC 5231B0B4
     Copy CRC 5231B0B4
     Accurately ripped (confidence 1)  [4EF54D1C]  (AR v2)
     Copy OK
Track  7
     Filename H:\Torrents\Lunceford, Jimmie\Jimmie Lunceford & His Orchestra (1996) [CLASSICS 862] The Chronological Classics - 1941-1945\07. Jimmie Lunceford & His Orchestra - Knock Me a Kiss.wav
     Pre-gap length  0:00:02.00
     Peak level 99.2 %
     Extraction speed 5.4 X
     Track quality 99.9 %
     Test CRC 6449208F
     Copy CRC 6449208F
     Accurately ripped (confidence 1)  [D633F3DD]  (AR v2)
     Copy OK
Track  8
     Filename H:\Torrents\Lunceford, Jimmie\Jimmie Lunceford & His Orchestra (1996) [CLASSICS 862] The Chronological Classics - 1941-1945\08. Jimmie Lunceford & His Orchestra - Keep Smilin', Keep Laughin', Be Happy.wav
     Pre-gap length  0:00:02.00
     Peak level 85.1 %
     Extraction speed 6.5 X
     Track quality 100.0 %
     Test CRC 41FA3A54
     Copy CRC 41FA3A54
     Accurately ripped (confidence 1)  [0B22C259]  (AR v2)
     Copy OK
Track  9
     Filename H:\Torrents\Lunceford, Jimmie\Jimmie Lunceford & His Orchestra (1996) [CLASSICS 862] The Chronological Classics - 1941-1945\09. Jimmie Lunceford & His Orchestra - I Dream a Lot About You.wav
     Pre-gap length  0:00:02.00
     Peak level 92.0 %
     Extraction speed 6.0 X
     Track quality 99.9 %
     Test CRC 6D28FBEE
     Copy CRC 6D28FBEE
     Accurately ripped (confidence 1)  [61BE73C5]  (AR v2)
     Copy OK
Track 10
     Filename H:\Torrents\Lunceford, Jimmie\Jimmie Lunceford & His Orchestra (1996) [CLASSICS 862] The Chronological Classics - 1941-1945\10. Jimmie Lunceford & His Orchestra - Easy Street.wav
     Pre-gap length  0:00:02.00
     Peak level 90.1 %
     Extraction speed 7.5 X
     Track quality 100.0 %
     Test CRC 72E2B1CD
     Copy CRC 72E2B1CD
     Accurately ripped (confidence 1)  [B09B20E1]  (AR v2)
     Copy OK
Track 11
     Filename H:\Torrents\Lunceford, Jimmie\Jimmie Lunceford & His Orchestra (1996) [CLASSICS 862] The Chronological Classics - 1941-1945\11. Jimmie Lunceford & His Orchestra - Back Door Stuff - Part 1.wav
     Pre-gap length  0:00:02.00
     Peak level 98.3 %
     Extraction speed 6.2 X
     Track quality 99.9 %
     Test CRC BB856F97
     Copy CRC BB856F97
     Accurately ripped (confidence 1)  [C78674BA]  (AR v2)
     Copy OK
Track 12
     Filename H:\Torrents\Lunceford, Jimmie\Jimmie Lunceford & His Orchestra (1996) [CLASSICS 862] The Chronological Classics - 1941-1945\12. Jimmie Lunceford & His Orchestra - Back Door Stuff - Part 2.wav
     Pre-gap length  0:00:02.00
     Peak level 98.1 %
     Extraction speed 6.3 X
     Track quality 99.9 %
     Test CRC 53DB34A3
     Copy CRC 53DB34A3
     Accurately ripped (confidence 1)  [CA4630DF]  (AR v2)
     Copy OK
Track 13
     Filename H:\Torrents\Lunceford, Jimmie\Jimmie Lunceford & His Orchestra (1996) [CLASSICS 862] The Chronological Classics - 1941-1945\13. Jimmie Lunceford & His Orchestra - Jeep Rhythm.wav
     Pre-gap length  0:00:02.00
     Peak level 92.8 %
     Extraction speed 5.5 X
     Track quality 99.8 %
     Test CRC 1EB1C633
     Copy CRC 1EB1C633
     Accurately ripped (confidence 1)  [8BE1DD66]  (AR v2)
     Copy OK
Track 14
     Filename H:\Torrents\Lunceford, Jimmie\Jimmie Lunceford & His Orchestra (1996) [CLASSICS 862] The Chronological Classics - 1941-1945\14. Jimmie Lunceford & His Orchestra - I'm Gonna See My Baby.wav
     Pre-gap length  0:00:02.00
     Peak level 93.0 %
     Extraction speed 8.4 X
     Track quality 100.0 %
     Test CRC 8298E8A5
     Copy CRC 8298E8A5
     Accurately ripped (confidence 1)  [BF43B803]  (AR v2)
     Copy OK
Track 15
     Filename H:\Torrents\Lunceford, Jimmie\Jimmie Lunceford & His Orchestra (1996) [CLASSICS 862] The Chronological Classics - 1941-1945\15. Jimmie Lunceford & His Orchestra - That Someone Must Be You.wav
     Pre-gap length  0:00:02.00
     Peak level 97.0 %
     Extraction speed 8.6 X
     Track quality 100.0 %
     Test CRC 4386D930
     Copy CRC 4386D930
     Accurately ripped (confidence 1)  [6E570731]  (AR v2)
     Copy OK
Track 16
     Filename H:\Torrents\Lunceford, Jimmie\Jimmie Lunceford & His Orchestra (1996) [CLASSICS 862] The Chronological Classics - 1941-1945\16. Jimmie Lunceford & His Orchestra - I'm in a Jam with Baby.wav
     Pre-gap length  0:00:02.00
     Peak level 85.1 %
     Extraction speed 9.1 X
     Track quality 100.0 %
     Test CRC 65938F6B
     Copy CRC 65938F6B
     Accurately ripped (confidence 1)  [023763DE]  (AR v2)
     Copy OK
Track 17
     Filename H:\Torrents\Lunceford, Jimmie\Jimmie Lunceford & His Orchestra (1996) [CLASSICS 862] The Chronological Classics - 1941-1945\17. Jimmie Lunceford & His Orchestra - Buzz-Buzz-Buzz.wav
     Pre-gap length  0:00:02.00
     Peak level 83.9 %
     Extraction speed 9.0 X
     Track quality 100.0 %
     Test CRC E3C5DCAA
     Copy CRC E3C5DCAA
     Accurately ripped (confidence 1)  [72446A74]  (AR v2)
     Copy OK
Track 18
     Filename H:\Torrents\Lunceford, Jimmie\Jimmie Lunceford & His Orchestra (1996) [CLASSICS 862] The Chronological Classics - 1941-1945\18. Jimmie Lunceford & His Orchestra - This Is My Confession to You.wav
     Pre-gap length  0:00:02.00
     Peak level 85.6 %
     Extraction speed 9.5 X
     Track quality 100.0 %
     Test CRC 9DD50E74
     Copy CRC 9DD50E74
     Accurately ripped (confidence 1)  [697DEA1D]  (AR v2)
     Copy OK
Track 19
     Filename H:\Torrents\Lunceford, Jimmie\Jimmie Lunceford & His Orchestra (1996) [CLASSICS 862] The Chronological Classics - 1941-1945\19. Jimmie Lunceford & His Orchestra and The Delta Rhythm Boys - Baby, Are You Kiddin'.wav
     Pre-gap length  0:00:02.00
     Peak level 77.3 %
     Extraction speed 9.6 X
     Track quality 100.0 %
     Test CRC 76C78E86
     Copy CRC 76C78E86
     Accurately ripped (confidence 1)  [76FB71BE]  (AR v2)
     Copy OK
Track 20
     Filename H:\Torrents\Lunceford, Jimmie\Jimmie Lunceford & His Orchestra (1996) [CLASSICS 862] The Chronological Classics - 1941-1945\20. Jimmie Lunceford & His Orchestra and The Delta Rhythm Boys - The Honeydripper.wav
     Pre-gap length  0:00:02.00
     Peak level 78.8 %
     Extraction speed 6.2 X
     Track quality 99.8 %
     Test CRC 8CD0204E
     Copy CRC 8CD0204E
     Accurately ripped (confidence 1)  [60561A0C]  (AR v2)
     Copy OK
All tracks accurately ripped
No errors occurred
End of status report
==== Log checksum 8E4D6FF5B38F45EA1CDF17660C0480DCB5171B350F28ABDF20CF7A89B3220B9A ====
Содержание индексной карты (.CUE)
REM GENRE Jazz
REM DATE 1996
REM DISCID 200DDE14
REM COMMENT "ExactAudioCopy v1.3"
CATALOG 0000000000000
PERFORMER "Jimmie Lunceford & His Orchestra"
TITLE "The Chronological Classics: 1941-1945"
REM COMPOSER ""
FILE "01. Jimmie Lunceford & His Orchestra - I'm Losing My Mind (Because of You).wav" WAVE
  TRACK 01 AUDIO
    TITLE "I'm Losing My Mind (Because of You)"
    PERFORMER "Jimmie Lunceford & His Orchestra"
    REM COMPOSER ""
    PREGAP 00:00:32
    INDEX 01 00:00:00
  TRACK 02 AUDIO
    TITLE "Life Is Fine"
    PERFORMER "Jimmie Lunceford & His Orchestra"
    REM COMPOSER ""
    INDEX 00 03:20:25
FILE "02. Jimmie Lunceford & His Orchestra - Life Is Fine.wav" WAVE
    INDEX 01 00:00:00
  TRACK 03 AUDIO
    TITLE "It Had to Be You"
    PERFORMER "Jimmie Lunceford & His Orchestra"
    REM COMPOSER ""
    INDEX 00 02:38:63
FILE "03. Jimmie Lunceford & His Orchestra - It Had to Be You.wav" WAVE
    INDEX 01 00:00:00
  TRACK 04 AUDIO
    TITLE "I'm Gonna Move to the Outskirts of Town - Part 1"
    PERFORMER "Jimmie Lunceford & His Orchestra"
    REM COMPOSER ""
    INDEX 00 03:08:40
FILE "04. Jimmie Lunceford & His Orchestra - I'm Gonna Move to the Outskirts of Town - Part 1.wav" WAVE
    INDEX 01 00:00:00
  TRACK 05 AUDIO
    TITLE "I'm Gonna Move to the Outskirts of Town - Part 2"
    PERFORMER "Jimmie Lunceford & His Orchestra"
    REM COMPOSER ""
    INDEX 00 03:10:52
FILE "05. Jimmie Lunceford & His Orchestra - I'm Gonna Move to the Outskirts of Town - Part 2.wav" WAVE
    INDEX 01 00:00:00
  TRACK 06 AUDIO
    TITLE "Strictly Instrumental"
    PERFORMER "Jimmie Lunceford & His Orchestra"
    REM COMPOSER ""
    INDEX 00 02:57:15
FILE "06. Jimmie Lunceford & His Orchestra - Strictly Instrumental.wav" WAVE
    INDEX 01 00:00:00
  TRACK 07 AUDIO
    TITLE "Knock Me a Kiss"
    PERFORMER "Jimmie Lunceford & His Orchestra"
    REM COMPOSER ""
    INDEX 00 02:37:60
FILE "07. Jimmie Lunceford & His Orchestra - Knock Me a Kiss.wav" WAVE
    INDEX 01 00:00:00
  TRACK 08 AUDIO
    TITLE "Keep Smilin', Keep Laughin', Be Happy"
    PERFORMER "Jimmie Lunceford & His Orchestra"
    REM COMPOSER ""
    INDEX 00 03:02:23
FILE "08. Jimmie Lunceford & His Orchestra - Keep Smilin', Keep Laughin', Be Happy.wav" WAVE
    INDEX 01 00:00:00
  TRACK 09 AUDIO
    TITLE "I Dream a Lot About You"
    PERFORMER "Jimmie Lunceford & His Orchestra"
    REM COMPOSER ""
    INDEX 00 02:21:42
FILE "09. Jimmie Lunceford & His Orchestra - I Dream a Lot About You.wav" WAVE
    INDEX 01 00:00:00
  TRACK 10 AUDIO
    TITLE "Easy Street"
    PERFORMER "Jimmie Lunceford & His Orchestra"
    REM COMPOSER ""
    INDEX 00 03:08:58
FILE "10. Jimmie Lunceford & His Orchestra - Easy Street.wav" WAVE
    INDEX 01 00:00:00
  TRACK 11 AUDIO
    TITLE "Back Door Stuff - Part 1"
    PERFORMER "Jimmie Lunceford & His Orchestra"
    REM COMPOSER ""
    INDEX 00 02:59:65
FILE "11. Jimmie Lunceford & His Orchestra - Back Door Stuff - Part 1.wav" WAVE
    INDEX 01 00:00:00
  TRACK 12 AUDIO
    TITLE "Back Door Stuff - Part 2"
    PERFORMER "Jimmie Lunceford & His Orchestra"
    REM COMPOSER ""
    INDEX 00 03:10:22
FILE "12. Jimmie Lunceford & His Orchestra - Back Door Stuff - Part 2.wav" WAVE
    INDEX 01 00:00:00
  TRACK 13 AUDIO
    TITLE "Jeep Rhythm"
    PERFORMER "Jimmie Lunceford & His Orchestra"
    REM COMPOSER ""
    INDEX 00 02:47:30
FILE "13. Jimmie Lunceford & His Orchestra - Jeep Rhythm.wav" WAVE
    INDEX 01 00:00:00
  TRACK 14 AUDIO
    TITLE "I'm Gonna See My Baby"
    PERFORMER "Jimmie Lunceford & His Orchestra"
    REM COMPOSER ""
    INDEX 00 02:54:65
FILE "14. Jimmie Lunceford & His Orchestra - I'm Gonna See My Baby.wav" WAVE
    INDEX 01 00:00:00
  TRACK 15 AUDIO
    TITLE "That Someone Must Be You"
    PERFORMER "Jimmie Lunceford & His Orchestra"
    REM COMPOSER ""
    INDEX 00 02:58:53
FILE "15. Jimmie Lunceford & His Orchestra - That Someone Must Be You.wav" WAVE
    INDEX 01 00:00:00
  TRACK 16 AUDIO
    TITLE "I'm in a Jam with Baby"
    PERFORMER "Jimmie Lunceford & His Orchestra"
    REM COMPOSER ""
    INDEX 00 02:53:10
FILE "16. Jimmie Lunceford & His Orchestra - I'm in a Jam with Baby.wav" WAVE
    INDEX 01 00:00:00
  TRACK 17 AUDIO
    TITLE "Buzz-Buzz-Buzz"
    PERFORMER "Jimmie Lunceford & His Orchestra"
    REM COMPOSER ""
    INDEX 00 03:04:47
FILE "17. Jimmie Lunceford & His Orchestra - Buzz-Buzz-Buzz.wav" WAVE
    INDEX 01 00:00:00
  TRACK 18 AUDIO
    TITLE "This Is My Confession to You"
    PERFORMER "Jimmie Lunceford & His Orchestra"
    REM COMPOSER ""
    INDEX 00 02:26:15
FILE "18. Jimmie Lunceford & His Orchestra - This Is My Confession to You.wav" WAVE
    INDEX 01 00:00:00
  TRACK 19 AUDIO
    TITLE "Baby, Are You Kiddin'?"
    PERFORMER "Jimmie Lunceford & His Orchestra and The Delta Rhythm Boys"
    REM COMPOSER ""
    INDEX 00 03:03:55
FILE "19. Jimmie Lunceford & His Orchestra and The Delta Rhythm Boys - Baby, Are You Kiddin'.wav" WAVE
    INDEX 01 00:00:00
  TRACK 20 AUDIO
    TITLE "The Honeydripper"
    PERFORMER "Jimmie Lunceford & His Orchestra and The Delta Rhythm Boys"
    REM COMPOSER ""
    INDEX 00 03:01:33
FILE "20. Jimmie Lunceford & His Orchestra and The Delta Rhythm Boys - The Honeydripper.wav" WAVE
    INDEX 01 00:00:00
No seeders - write personal message to M0p94ok. Any questions - support@pro-jazz.com.
Нет сидеров - пишите в личку M0p94ok. Есть вопросы - support@pro-jazz.com
12:01
228
Нет комментариев. Ваш будет первым!