Поиск

1995 Major Holley - Mule (The Definitive Black & Blue Sessions) {Black and Blue BB 862.2 ND 215}

1995 Major Holley - Mule (The Definitive Black & Blue Sessions) {Black and Blue BB 862.2 ND 215}
Стили:
Дата записи диска:
21 марта 1974 - февраль 1977
Дата издания диска:
1995
Издатель (лейбл):
Номер по каталогу:
BB 862.2 ND 215
Носитель:
CD
Битрейт аудио:
lossless
Аудиокодек:
FLAC (*.flac)
Тип рипа:
image+.cue
Время звучания:
53'30
Наличие сканов:
  • да
Релизёр (источник):
Nicfreak

Треклист:

01. Mack The Knife 4:03
02. There Will Never Be Another You 4:36
03. Realm Of Love 6:18
04. Wig, Thig, Bad An Major Too 4:55
05. Miss Mule 3:45
06. Angel Eyes 5:35
07. Recado Bossa Nova 5:53
08. Elum 3:22
09. No Place Like Home 4:42
10. Just A Closer Walk With Thee 2:49
11. There Will Never Be Another You (Alt.Take) 4:33
12. Elum (Alt.Take) 2:55

Состав:
  • Gerard Badini - Sax (Tenor)
  • Major Holley - Bass, Composer
  • Gerhard Lehner - Engineer
  • Jean Michel Proust - Direction, Graphic Design, Liner Notes
  • Ed Thigpen - Composer, Drums
  • Gerry Wiggins - Piano
Лог создания рипа
Exact Audio Copy V0.99 prebeta 5 from 4. May 2009
Отчёт EAC об извлечении, выполненном 5. февраля 2011, 18:34
Major Holley / Mule
Дисковод: PLEXTOR DVDR PX-800A Adapter: 0 ID: 0
Режим чтения : Достоверность
Использование точного потока : Да
Отключение кэша аудио : Да
Использование указателей C2 : Нет
Коррекция смещения при чтении : 48
Способность читать области Lead-in и Lead-out : Нет
Заполнение пропущенных сэмплов тишиной : Да
Удаление блоков с тишиной в начале и конце : Нет
При вычислениях CRC использовались нулевые сэмплы : Да
Интерфейс : Установленный внешний ASPI-интерфейс
Выходной формат : Пользовательский кодировщик
Выбранный битрейт : 896 kBit/s
Качество : Высокий
Добавление ID3-тэга : Нет
Утилита сжатия : C:\Program Files\Exact Audio Copy\FLAC\FLAC.EXE
Дополнительные параметры : -8 -V -T "ARTIST=%a" -T "TITLE=%t" -T "ALBUM=%g" -T "DATE=%y" -T "TRACKNUMBER=%n" -T "GENRE=%m" -T "COMMENT=%e" %s -o %d
TOC извлечённого CD
Трек | Старт | Длительность | Начальный сектор | Конечный сектор
---------------------------------------------------------------------
1 | 0:00.32 | 4:03.53 | 32 | 18309
2 | 4:04.10 | 4:36.70 | 18310 | 39079
3 | 8:41.05 | 6:18.20 | 39080 | 67449
4 | 14:59.25 | 4:55.42 | 67450 | 89616
5 | 19:54.67 | 3:45.20 | 89617 | 106511
6 | 23:40.12 | 5:35.48 | 106512 | 131684
7 | 29:15.60 | 5:53.30 | 131685 | 158189
8 | 35:09.15 | 3:22.20 | 158190 | 173359
9 | 38:31.35 | 4:42.15 | 173360 | 194524
10 | 43:13.50 | 2:49.02 | 194525 | 207201
11 | 46:02.52 | 4:33.55 | 207202 | 227731
12 | 50:36.32 | 2:55.73 | 227732 | 240929
Характеристики диапазона извлечения и сообщения об ошибках
Выбранный диапазон
Имя файла G:\MY\Major Holley & Slam Stewart (5CD)\Major Holley - Mule - 1995\Major Holley - Mule.wav
Пиковый уровень 91.4 %
Качество диапазона 99.9 %
CRC теста 9EC11FC6
CRC копии 9EC11FC6
Копирование... OK
Ошибок не произошло
AccurateRip: сводка
Трек 1 точное извлечение (доверие 2) [3914EA71]
Трек 2 точное извлечение (доверие 2) [28FB6F37]
Трек 3 нет в базе данных
Трек 4 точное извлечение (доверие 2) [66112925]
Трек 5 точное извлечение (доверие 2) [3A54E35F]
Трек 6 точное извлечение (доверие 2) [2E72082F]
Трек 7 точное извлечение (доверие 2) [500395ED]
Трек 8 точное извлечение (доверие 2) [690BBDDF]
Трек 9 точное извлечение (доверие 2) [D970712B]
Трек 10 точное извлечение (доверие 2) [1FB7DE2C]
Трек 11 точное извлечение (доверие 2) [E8A51DBC]
Трек 12 точное извлечение (доверие 2) [01C11A60]
11 трек(и) скопированы точно
1 трек(и) не содержатся в базе AccurateRip
Некоторые треки не прошли проверку на точность
Конец отчёта
Содержание индексной карты (.CUE)
REM GENRE Jazz
REM DATE 1995
REM DISCID 940C8C0C
REM COMMENT "ExactAudioCopy v0.99pb5"
PERFORMER "Major Holley"
TITLE "Mule"
FILE "Major Holley - Mule.flac" WAVE
TRACK 01 AUDIO
TITLE "Mack The Knife"
PERFORMER "Major Holley"
INDEX 00 00:00:00
INDEX 01 00:00:32
TRACK 02 AUDIO
TITLE "There Will Never Be Another You"
PERFORMER "Major Holley"
INDEX 00 04:01:73
INDEX 01 04:04:10
TRACK 03 AUDIO
TITLE "Realm Of Love"
PERFORMER "Major Holley"
INDEX 00 08:38:35
INDEX 01 08:41:05
TRACK 04 AUDIO
TITLE "Wig, Thig, Bad and Major Too"
PERFORMER "Major Holley"
INDEX 00 14:56:68
INDEX 01 14:59:25
TRACK 05 AUDIO
TITLE "Miss Mule"
PERFORMER "Major Holley"
INDEX 00 19:51:00
INDEX 01 19:54:67
TRACK 06 AUDIO
TITLE "Angel Eyes"
PERFORMER "Major Holley"
INDEX 00 23:37:50
INDEX 01 23:40:12
TRACK 07 AUDIO
TITLE "Recado Bossa Nova"
PERFORMER "Major Holley"
INDEX 00 29:12:73
INDEX 01 29:15:60
TRACK 08 AUDIO
TITLE "Elum"
PERFORMER "Major Holley"
INDEX 00 35:06:38
INDEX 01 35:09:15
TRACK 09 AUDIO
TITLE "No Place Like Home"
PERFORMER "Major Holley"
INDEX 00 38:29:10
INDEX 01 38:31:35
TRACK 10 AUDIO
TITLE "Just A Closer Walk With Thee"
PERFORMER "Major Holley"
INDEX 00 43:10:63
INDEX 01 43:13:50
TRACK 11 AUDIO
TITLE "There Will Never Be Another You (alternate take)"
PERFORMER "Major Holley"
INDEX 00 46:00:73
INDEX 01 46:02:52
TRACK 12 AUDIO
TITLE "Elum (alternate take)"
PERFORMER "Major Holley"
INDEX 00 50:34:45
INDEX 01 50:36:32
17:50
173
RSS
Нет комментариев. Ваш будет первым!