Поиск

1994 Lonnie Smith Trio - Purple Haze Tribute to Jimi Hendrix (2016) {Venus VHGD-169} [DSD64]

1994 Lonnie Smith Trio - Purple Haze Tribute to Jimi Hendrix (2016) {Venus VHGD-169} [DSD64]
Дата записи диска:
20 марта 1994
Место записи:
Sound Designer Studio, NY
Дата переиздания диска:
2016
Издатель (лейбл):
Номер по каталогу:
VHGD-169
Носитель:
SACD
Формат:
DSD
Тип рипа:
image
Контейнер:
ISO (*.iso)
Количество каналов:
2.0
Разрядность/ЧД:
64 (2,8 MHz/1 Bit)
Время звучания:
00:56:24
Наличие сканов:
web
Наличие водяных знаков:
нет
Страна-производитель диска (релиза):
Japan
Релизёр (источник):
M0p94ok
Треклист:

01. Voodoo Chile (12:22)
02. Up From The Skies (9:50)
03. Gypsy Eyes (16:57)
04. Purple Haze ~ Star Spangled Banner (17:11)

Лог проверки качества
foobar2000 1.4.3 / Dynamic Range Meter 1.1.1
log date: 2020-02-19 13:03:31

--------------------------------------------------------------------------------
Analyzed: LONNIE SMITH TRIO / Purple Haze
--------------------------------------------------------------------------------

DR         Peak         RMS     Duration Track
--------------------------------------------------------------------------------
DR5       -4.82 dB   -10.98 dB     12:24 01-Voodoo Chile
DR5       -4.88 dB   -11.13 dB      9:50 02-Up From The Sky
DR5       -5.07 dB   -11.64 dB     16:56 03-Gypsy Eyes
DR5       -4.95 dB   -11.81 dB     17:14 04-Purple Haze ~ Ster Spangled Banner
--------------------------------------------------------------------------------

Number of tracks:  4
Official DR value: DR5

Samplerate:        2822400 Hz / PCM Samplerate: 44100 Hz
Channels:          2
Bits per sample:   1
Bitrate:           5645 kbps
Codec:             DSD64
================================================================================
Приватный:
Нет (DHT включён)
Размер:
2.27 Гб (2,441,843,827 байт) » файлов: 4
Участники:
11 раздают, 0 качают (11 участников всего)
Внешние участники:
--- [ Обновить ]
Есть вопросы - пишите личное сообщение пользователю M0p94ok.
13:43
23
Нет комментариев. Ваш будет первым!