Поиск

1994 Leny Andrade - Maiden Voyage {Chesky JD113}

1994 Leny Andrade - Maiden Voyage {Chesky JD113}
Страна-производитель диска (релиза):
USA
Дата записи диска:
21-22 декабря 1993
Дата издания диска:
14 апреля 1994
Издатель (лейбл):
Номер по каталогу:
JD113
Носитель:
CD
Битрейт аудио:
lossless
Аудиокодек:
FLAC (*.flac)
Тип рипа:
tracks
Время звучания:
63:04
Наличие сканов:
  • нет
Релизёр (источник):
datav87

Треклист:

01. This Can't Be Love (Rodgers-Hart) - 3:22
02. Dindi (Jobim-De Oliveira) - 6:17
03. Lover (Rodgers-Hart) - 4:56
04. Manha de Carnaval (Bonfa) - 5:37
05. Wave (Jobim) - 5:51
06. Maiden Voyage (Hancock) - 6:25
07. My Funny Valentine (Rodgers-Hart) - 5:16
08. Ribbon in the Sky (Wander) - 4:39
09. I've Got You Under My Skin (Porter) - 2:53
10. Cantor da Noite (Martins-Lins) - 4:52
11. Velas Icadas (Martins-Lins) - 4:30
12. Tarde (Borges-Nascimento) - 6:06
13. Weekend (Quindere-Eca) - 2:20

Состав:
  • Leny Andrade    Vocals
  • David Chesky    Producer
  • David Dunawa    Bass
  • David Dunaway    Bass
  • Fred Hersch    Arranger, Director, Musical Director, Piano, Producer
  • Bob Katz    Engineer
  • Michael McDonald    Editing
  • David Merrill    Engineer
  • Steve Sacks    Liner Notes, Lyric Translation, Translation
  • Hélio Schiavo    Drums

Recorded at Master Sound Studios, Queens, NY on December 21-22, 1993.

Лог создания рипа
X Lossless Decoder version 20120407 (140.0)

XLD extraction logfile from 2012-04-18 16:09:12 -0400

Leny Andrade / Maiden Voyage

Used drive : MATSHITA DVD-R   UJ-857E (revision ZF1E)

Ripper mode             : XLD Secure Ripper
Disable audio cache     : OK for the drive with a cache less than 1375KiB
Make use of C2 pointers : NO
Read offset correction  : 102
Max retry count         : 20
Gap status              : Analyzed, Appended

TOC of the extracted CD
     Track |   Start  |  Length  | Start sector | End sector
    ---------------------------------------------------------
        1  | 00:00:30 | 03:21:74 |        30    |    15178
        2  | 03:22:29 | 06:16:54 |     15179    |    43432
        3  | 09:39:08 | 04:56:30 |     43433    |    65662
        4  | 14:35:38 | 05:36:62 |     65663    |    90924
        5  | 20:12:25 | 05:50:48 |     90925    |   117222
        6  | 26:02:73 | 06:25:10 |    117223    |   146107
        7  | 32:28:08 | 05:15:55 |    146108    |   169787
        8  | 37:43:63 | 04:38:65 |    169788    |   190702
        9  | 42:22:53 | 02:53:03 |    190703    |   203680
       10  | 45:15:56 | 04:51:52 |    203681    |   225557
       11  | 50:07:33 | 04:30:30 |    225558    |   245837
       12  | 54:37:63 | 06:05:58 |    245838    |   273270
       13  | 60:43:46 | 02:20:34 |    273271    |   283804

AccurateRip Summary
    Track 01 : OK (AR2, confidence 2)
    Track 02 : OK (AR2, confidence 2)
    Track 03 : OK (AR2, confidence 2)
    Track 04 : OK (AR2, confidence 2)
    Track 05 : OK (AR2, confidence 2)
    Track 06 : OK (AR2, confidence 2)
    Track 07 : OK (AR2, confidence 2)
    Track 08 : OK (AR2, confidence 2)
    Track 09 : OK (AR2, confidence 2)
    Track 10 : OK (AR2, confidence 2)
    Track 11 : OK (AR2, confidence 2)
    Track 12 : OK (AR2, confidence 2)
    Track 13 : OK (AR2, confidence 2)
        ->All tracks accurately ripped.

All Tracks
    Album gain             : -1.57 dB
    Peak                   : 0.977295
    Statistics
        Read error                           : 0
        Jitter error (maybe fixed)           : 0
        Retry sector count                   : 0
        Damaged sector count                 : 0

Track 01
    Filename : /Users/dannytoro/Leny Andrade - Maiden Voyage ft. Fred Hersch(2005)FLAC/01 Leny Andrade - This Can't Be Love.flac
    Pre-gap length : 00:02:30

    Track gain             : -1.42 dB
    Peak                   : 0.786743
    CRC32 hash (test run)  : 67FD1EC0
    CRC32 hash             : 67FD1EC0
    CRC32 hash (skip zero) : 7AF5BDB4
    AccurateRip signature  : E641EE78
        ->Accurately ripped! (AR2, confidence 2)
    Statistics
        Read error                           : 0
        Jitter error (maybe fixed)           : 0
        Retry sector count                   : 0
        Damaged sector count                 : 0

Track 02
    Filename : /Users/dannytoro/Leny Andrade - Maiden Voyage ft. Fred Hersch(2005)FLAC/02 Leny Andrade - Dindi.flac

    Track gain             : 0.07 dB
    Peak                   : 0.923859
    CRC32 hash (test run)  : 15549AFB
    CRC32 hash             : 15549AFB
    CRC32 hash (skip zero) : 4706F8FF
    AccurateRip signature  : F1413372
        ->Accurately ripped! (AR2, confidence 2)
    Statistics
        Read error                           : 0
        Jitter error (maybe fixed)           : 0
        Retry sector count                   : 0
        Damaged sector count                 : 0

Track 03
    Filename : /Users/dannytoro/Leny Andrade - Maiden Voyage ft. Fred Hersch(2005)FLAC/03 Leny Andrade - Lover.flac

    Track gain             : -2.04 dB
    Peak                   : 0.950470
    CRC32 hash (test run)  : 8911B366
    CRC32 hash             : 8911B366
    CRC32 hash (skip zero) : 44EB9D12
    AccurateRip signature  : 2632C179
        ->Accurately ripped! (AR2, confidence 2)
    Statistics
        Read error                           : 0
        Jitter error (maybe fixed)           : 0
        Retry sector count                   : 0
        Damaged sector count                 : 0

Track 04
    Filename : /Users/dannytoro/Leny Andrade - Maiden Voyage ft. Fred Hersch(2005)FLAC/04 Leny Andrade - Manha De Carnaval.flac

    Track gain             : -2.85 dB
    Peak                   : 0.977295
    CRC32 hash (test run)  : E23ED9C0
    CRC32 hash             : E23ED9C0
    CRC32 hash (skip zero) : 56D76808
    AccurateRip signature  : AA680B84
        ->Accurately ripped! (AR2, confidence 2)
    Statistics
        Read error                           : 0
        Jitter error (maybe fixed)           : 0
        Retry sector count                   : 0
        Damaged sector count                 : 0

Track 05
    Filename : /Users/dannytoro/Leny Andrade - Maiden Voyage ft. Fred Hersch(2005)FLAC/05 Leny Andrade - Wave.flac

    Track gain             : -1.35 dB
    Peak                   : 0.944092
    CRC32 hash (test run)  : 1D50EADA
    CRC32 hash             : 1D50EADA
    CRC32 hash (skip zero) : D98E6A84
    AccurateRip signature  : 728A21D4
        ->Accurately ripped! (AR2, confidence 2)
    Statistics
        Read error                           : 0
        Jitter error (maybe fixed)           : 0
        Retry sector count                   : 0
        Damaged sector count                 : 0

Track 06
    Filename : /Users/dannytoro/Leny Andrade - Maiden Voyage ft. Fred Hersch(2005)FLAC/06 Leny Andrade - Maiden Voyage.flac

    Track gain             : -0.74 dB
    Peak                   : 0.922607
    CRC32 hash (test run)  : B8279632
    CRC32 hash             : B8279632
    CRC32 hash (skip zero) : F39405A3
    AccurateRip signature  : 8FC825DC
        ->Accurately ripped! (AR2, confidence 2)
    Statistics
        Read error                           : 0
        Jitter error (maybe fixed)           : 0
        Retry sector count                   : 0
        Damaged sector count                 : 0

Track 07
    Filename : /Users/dannytoro/Leny Andrade - Maiden Voyage ft. Fred Hersch(2005)FLAC/07 Leny Andrade - My Funny Valentine.flac

    Track gain             : 0.26 dB
    Peak                   : 0.915222
    CRC32 hash (test run)  : 1DAABC99
    CRC32 hash             : 1DAABC99
    CRC32 hash (skip zero) : C32965BA
    AccurateRip signature  : CBB80921
        ->Accurately ripped! (AR2, confidence 2)
    Statistics
        Read error                           : 0
        Jitter error (maybe fixed)           : 0
        Retry sector count                   : 0
        Damaged sector count                 : 0

Track 08
    Filename : /Users/dannytoro/Leny Andrade - Maiden Voyage ft. Fred Hersch(2005)FLAC/08 Leny Andrade - Ribbon In The Sky.flac

    Track gain             : -2.95 dB
    Peak                   : 0.955048
    CRC32 hash (test run)  : 2DDD360E
    CRC32 hash             : 2DDD360E
    CRC32 hash (skip zero) : 79637B8D
    AccurateRip signature  : 8CDA6720
        ->Accurately ripped! (AR2, confidence 2)
    Statistics
        Read error                           : 0
        Jitter error (maybe fixed)           : 0
        Retry sector count                   : 0
        Damaged sector count                 : 0

Track 09
    Filename : /Users/dannytoro/Leny Andrade - Maiden Voyage ft. Fred Hersch(2005)FLAC/09 Leny Andrade - I've Got You Under My Skin.flac

    Track gain             : -0.84 dB
    Peak                   : 0.781036
    CRC32 hash (test run)  : 712B455A
    CRC32 hash             : 712B455A
    CRC32 hash (skip zero) : FCD1AC76
    AccurateRip signature  : 4A6B1708
        ->Accurately ripped! (AR2, confidence 2)
    Statistics
        Read error                           : 0
        Jitter error (maybe fixed)           : 0
        Retry sector count                   : 0
        Damaged sector count                 : 0

Track 10
    Filename : /Users/dannytoro/Leny Andrade - Maiden Voyage ft. Fred Hersch(2005)FLAC/10 Leny Andrade - Cantor Da Noite.flac

    Track gain             : 1.16 dB
    Peak                   : 0.858551
    CRC32 hash (test run)  : 626B562F
    CRC32 hash             : 626B562F
    CRC32 hash (skip zero) : 8846FB51
    AccurateRip signature  : 9B310DA3
        ->Accurately ripped! (AR2, confidence 2)
    Statistics
        Read error                           : 0
        Jitter error (maybe fixed)           : 0
        Retry sector count                   : 0
        Damaged sector count                 : 0

Track 11
    Filename : /Users/dannytoro/Leny Andrade - Maiden Voyage ft. Fred Hersch(2005)FLAC/11 Leny Andrade - Velas Icadas.flac

    Track gain             : -1.36 dB
    Peak                   : 0.944031
    CRC32 hash (test run)  : 507F11C9
    CRC32 hash             : 507F11C9
    CRC32 hash (skip zero) : F44F1145
    AccurateRip signature  : A2350489
        ->Accurately ripped! (AR2, confidence 2)
    Statistics
        Read error                           : 0
        Jitter error (maybe fixed)           : 0
        Retry sector count                   : 0
        Damaged sector count                 : 0

Track 12
    Filename : /Users/dannytoro/Leny Andrade - Maiden Voyage ft. Fred Hersch(2005)FLAC/12 Leny Andrade - Tardes.flac

    Track gain             : -2.48 dB
    Peak                   : 0.917206
    CRC32 hash (test run)  : A938B38E
    CRC32 hash             : A938B38E
    CRC32 hash (skip zero) : AB50687F
    AccurateRip signature  : 0C693A38
        ->Accurately ripped! (AR2, confidence 2)
    Statistics
        Read error                           : 0
        Jitter error (maybe fixed)           : 0
        Retry sector count                   : 0
        Damaged sector count                 : 0

Track 13
    Filename : /Users/dannytoro/Leny Andrade - Maiden Voyage ft. Fred Hersch(2005)FLAC/13 Leny Andrade - Weekend.flac

    Track gain             : -1.87 dB
    Peak                   : 0.885742
    CRC32 hash (test run)  : 89480CD1
    CRC32 hash             : 89480CD1
    CRC32 hash (skip zero) : E2AE12A1
    AccurateRip signature  : 7B6525C8
        ->Accurately ripped! (AR2, confidence 2)
    Statistics
        Read error                           : 0
        Jitter error (maybe fixed)           : 0
        Retry sector count                   : 0
        Damaged sector count                 : 0

No errors occurred

End of status report
Лог проверки качества
auCDtect: CD records authenticity detector, version 0.8.2
Copyright (c) 2004 Oleg Berngardt. All rights reserved.
Copyright (c) 2004 Alexander Djourik. All rights reserved.
------------------------------------------------------------
Processing file: [01 - This Can't Be Love.wav]
Detected average hi-boundary frequency: 2.020320e+004 Hz
Detected average lo-boundary frequency: 1.281065e+004 Hz
Detected average hi-cut frequency: 2.147819e+004 Hz
Detected average lo-cut frequency: 8.396172e+003 Hz
Maximum probablis boundary frequency: 2.189100e+004 Hz
Coefficient of nonlinearity of a phase: 5.485293e-001
First order smothness: 3.858195e-001
Second order smothness: 6.441068e-001

------------------------------------------------------------
This track looks like CDDA with probability 100%

------------------------------------------------------------
Processing file: [02 - Dindi.wav]
Detected average hi-boundary frequency: 2.024370e+004 Hz
Detected average lo-boundary frequency: 1.267367e+004 Hz
Detected average hi-cut frequency: 2.111419e+004 Hz
Detected average lo-cut frequency: 9.306714e+003 Hz
Maximum probablis boundary frequency: 2.189100e+004 Hz
Coefficient of nonlinearity of a phase: 5.904653e-001
First order smothness: 3.584813e-001
Second order smothness: 7.144970e-001

------------------------------------------------------------
This track looks like CDDA with probability 100%

------------------------------------------------------------
Processing file: [03 - Lover.wav]
Detected average hi-boundary frequency: 2.014875e+004 Hz
Detected average lo-boundary frequency: 1.341402e+004 Hz
Detected average hi-cut frequency: 2.155156e+004 Hz
Detected average lo-cut frequency: 7.717575e+003 Hz
Maximum probablis boundary frequency: 2.189100e+004 Hz
Coefficient of nonlinearity of a phase: 8.226567e-001
First order smothness: 3.649749e-001
Second order smothness: 6.528822e-001

------------------------------------------------------------
This track looks like CDDA with probability 100%

------------------------------------------------------------
Processing file: [04 - Manha de Carnaval.wav]
Detected average hi-boundary frequency: 2.023037e+004 Hz
Detected average lo-boundary frequency: 1.190872e+004 Hz
Detected average hi-cut frequency: 2.079652e+004 Hz
Detected average lo-cut frequency: 8.390677e+003 Hz
Maximum probablis boundary frequency: 2.189100e+004 Hz
Coefficient of nonlinearity of a phase: 5.814269e-001
First order smothness: 4.025365e-001
Second order smothness: 6.972705e-001

------------------------------------------------------------
This track looks like CDDA with probability 100%

------------------------------------------------------------
Processing file: [05 - Wave.wav]
Detected average hi-boundary frequency: 2.025586e+004 Hz
Detected average lo-boundary frequency: 1.277391e+004 Hz
Detected average hi-cut frequency: 2.063510e+004 Hz
Detected average lo-cut frequency: 8.511940e+003 Hz
Maximum probablis boundary frequency: 2.189100e+004 Hz
Coefficient of nonlinearity of a phase: 4.901329e-001
First order smothness: 3.863877e-001
Second order smothness: 6.607521e-001

------------------------------------------------------------
This track looks like CDDA with probability 100%

------------------------------------------------------------
Processing file: [06 - Maiden Voyage.wav]
Detected average hi-boundary frequency: 2.023283e+004 Hz
Detected average lo-boundary frequency: 1.315664e+004 Hz
Detected average hi-cut frequency: 2.124523e+004 Hz
Detected average lo-cut frequency: 8.778948e+003 Hz
Maximum probablis boundary frequency: 2.189100e+004 Hz
Coefficient of nonlinearity of a phase: 7.051401e-001
First order smothness: 3.578490e-001
Second order smothness: 6.906197e-001

------------------------------------------------------------
This track looks like CDDA with probability 100%

------------------------------------------------------------
Processing file: [07 - My Funny Valentine.wav]
Detected average hi-boundary frequency: 2.024655e+004 Hz
Detected average lo-boundary frequency: 1.190198e+004 Hz
Detected average hi-cut frequency: 2.059469e+004 Hz
Detected average lo-cut frequency: 8.981299e+003 Hz
Maximum probablis boundary frequency: 2.189100e+004 Hz
Coefficient of nonlinearity of a phase: 3.693909e-001
First order smothness: 3.711765e-001
Second order smothness: 7.270588e-001

------------------------------------------------------------
This track looks like CDDA with probability 62%

------------------------------------------------------------
Processing file: [08 - Ribbon in the Sky.wav]
Detected average hi-boundary frequency: 2.020949e+004 Hz
Detected average lo-boundary frequency: 1.380587e+004 Hz
Detected average hi-cut frequency: 2.130764e+004 Hz
Detected average lo-cut frequency: 8.782134e+003 Hz
Maximum probablis boundary frequency: 2.189100e+004 Hz
Coefficient of nonlinearity of a phase: 7.262563e-001
First order smothness: 3.533134e-001
Second order smothness: 6.683317e-001

------------------------------------------------------------
This track looks like CDDA with probability 99%

------------------------------------------------------------
Processing file: [09 - I've Got You Under My Skin.wav]
Detected average hi-boundary frequency: 2.015486e+004 Hz
Detected average lo-boundary frequency: 1.275316e+004 Hz
Detected average hi-cut frequency: 2.145515e+004 Hz
Detected average lo-cut frequency: 7.420743e+003 Hz
Maximum probablis boundary frequency: 2.189100e+004 Hz
Coefficient of nonlinearity of a phase: 7.456843e-001
First order smothness: 3.927039e-001
Second order smothness: 6.083691e-001

------------------------------------------------------------
This track looks like CDDA with probability 100%

------------------------------------------------------------
Processing file: [10 - Cantor da Noite.wav]
Detected average hi-boundary frequency: 2.028668e+004 Hz
Detected average lo-boundary frequency: 1.250891e+004 Hz
Detected average hi-cut frequency: 2.070828e+004 Hz
Detected average lo-cut frequency: 8.664415e+003 Hz
Maximum probablis boundary frequency: 2.189100e+004 Hz
Coefficient of nonlinearity of a phase: 5.183288e-001
First order smothness: 3.732484e-001
Second order smothness: 6.851321e-001

------------------------------------------------------------
This track looks like CDDA with probability 100%

------------------------------------------------------------
Processing file: [11 - Velas Icadas.wav]
Detected average hi-boundary frequency: 2.029487e+004 Hz
Detected average lo-boundary frequency: 1.443320e+004 Hz
Detected average hi-cut frequency: 2.141023e+004 Hz
Detected average lo-cut frequency: 9.176160e+003 Hz
Maximum probablis boundary frequency: 2.189100e+004 Hz
Coefficient of nonlinearity of a phase: 3.842003e-001
First order smothness: 3.894231e-001
Second order smothness: 6.486951e-001

------------------------------------------------------------
This track looks like CDDA with probability 100%

------------------------------------------------------------
Processing file: [12 - Tarde.wav]
Detected average hi-boundary frequency: 2.028220e+004 Hz
Detected average lo-boundary frequency: 1.309027e+004 Hz
Detected average hi-cut frequency: 2.109405e+004 Hz
Detected average lo-cut frequency: 9.750996e+003 Hz
Maximum probablis boundary frequency: 2.189100e+004 Hz
Coefficient of nonlinearity of a phase: 3.307887e-001
First order smothness: 3.594821e-001
Second order smothness: 7.128713e-001

------------------------------------------------------------
This track looks like CDDA with probability 100%

------------------------------------------------------------
Processing file: [13 - Weekend.wav]
Detected average hi-boundary frequency: 2.021854e+004 Hz
Detected average lo-boundary frequency: 1.332605e+004 Hz
Detected average hi-cut frequency: 2.134076e+004 Hz
Detected average lo-cut frequency: 6.519631e+003 Hz
Maximum probablis boundary frequency: 2.189100e+004 Hz
Coefficient of nonlinearity of a phase: 4.720560e-001
First order smothness: 3.980066e-001
Second order smothness: 4.936877e-001

------------------------------------------------------------
This track looks like CDDA with probability 100%
Приватный:
Нет (DHT включён)
Размер:
291.53 Мб (305,693,914 байт) » файлов: 18
Участники:
0 раздают, 0 качают (0 участников всего)
Внешние участники:
2 раздают, 1 качают (3 участников всего) [ Обновить ]
17:18
125
RSS
Нет комментариев. Ваш будет первым!