Поиск

1993 Marion Brown Quintet - Mirante Do Vale - Offering II (2019) {Venus VHGD-336} [DSD64]

1993 Marion Brown Quintet - Mirante Do Vale - Offering II (2019) {Venus VHGD-336} [DSD64]
Стили:
Дата записи диска:
8 октября 1992
Место записи:
Sear Sound Studio, New York City, NY, USA
Издатель (лейбл):
Номер по каталогу:
VHGD-336
Носитель:
SACD
Формат:
DSD
Тип рипа:
image
Контейнер:
ISO (*.iso)
Количество каналов:
2.0
Разрядность/ЧД:
64 (2,8 MHz/1 Bit)
Битрейт аудио:
lossless
Время звучания:
00:53:55
Наличие сканов:
web
Наличие водяных знаков:
нет
Страна-производитель диска (релиза):
USA
Релизёр (источник):
M0p94ok

Треклист:

1. Mirante Do Vale 10:23
2. Summer Serenade 6:14
3. Crucificado 7:25
4. Tom's Mood 9:06
5. La Placita 7:12
6. Montuno My Head 5:06
7. Chet Set 8:06

Лог проверки качества
foobar2000 1.6.2 / Dynamic Range Meter 1.1.1
log date: 2021-03-28 15:07:39

--------------------------------------------------------------------------------
Analyzed: MARION BROWN QUINTET / Mirante Do Vale ~Offering II~
--------------------------------------------------------------------------------

DR         Peak         RMS     Duration Track
--------------------------------------------------------------------------------
DR7       -4.85 dB   -14.64 dB     10:26 01-Mirante Do Vale
DR8       -4.99 dB   -15.34 dB      6:18 02-Summer Serenade
DR8       -5.31 dB   -15.65 dB      7:29 03-Crucificado
DR8       -4.74 dB   -15.61 dB      9:10 04-Tom's Mood
DR8       -5.03 dB   -16.45 dB      7:16 05-La Placita
DR8       -4.79 dB   -14.44 dB      5:10 06-Montuno My Head
DR8       -4.89 dB   -14.11 dB      8:07 07-Chest Set
--------------------------------------------------------------------------------

Number of tracks:  7
Official DR value: DR8

Samplerate:        2822400 Hz / PCM Samplerate: 88200 Hz
Channels:          2
Bits per sample:   1
Bitrate:           5645 kbps
Codec:             DSD64
================================================================================
Приватный:
Нет (DHT включён)
Размер:
2.17 Гб (2,335,055,949 байт) » файлов: 4
Участники:
2 раздают, 0 качают (2 участников всего)
Внешние участники:
--- [ Обновить ]
No seeders - write personal message to M0p94ok. Нет сидеров - пишите в личку M0p94ok.
15:28
89
Нет комментариев. Ваш будет первым!