Поиск

1993 Al Cooper's Savoy Sultans - 1938-1941 {Chronological Classics 728}

1993 Al Cooper's Savoy Sultans - 1938-1941 {Chronological Classics 728}
Стили:
Страна-производитель диска (релиза):
France
Дата записи диска:
29 июля 1938 - 28 февраля 1941
Дата издания диска:
1993
Издатель (лейбл):
Номер по каталогу:
728
Носитель:
CD
Аудиокодек:
FLAC (*.flac)
Тип рипа:
tracks+.cue
Битрейт аудио:
1
Время звучания:
69:11
Релизёр (источник):
weejie
Треклист:

01. Jump Steady (Chapman) - 2:56
02. The Thing (Cooper) - 3:13
03. Looney (Cooper) - 3:08
04. Rhythm Doctor Man (Cooper) - 2:46
05. Gettin' in the Groove (Cooper) - 2:54
06. Someone Outside Is Taking Your Mind Off Me () - 3:16
07. Jeep's Blues (Ellington, Hodges) - 3:10
08. You Never Miss the Water (Till the Well Runs Dry) (Hunt) - 2:42
09. Stitches (Cooper) - 2:52
10. Jumpin' at the Savoy (Chapman) - 2:46
11. We'd Rather Jump Than Swing (Jenkins) - 2:47
12. Draggin' My Heart Around (Hill) - 2:39
13. Little Sally Water (Cooper) - 2:28
14. Jumpin' the Blues (Chapman) - 2:38
15. Love Gave Me You (Chapman) - 2:42
16. When I Grow Too Old to Dream (Hammerstein, Romberg) - 2:28
17. Frenzy (Cooper) - 2:58
18. (If You Don't Know What You're Doing) Stop! And Ask Somebody (Chapman) - 2:53
19. Wishing and Crying for You (Cooper, Diggs) - 2:57
20. Sophisticated Jump (Haynes) - 3:08
21. Norfolk Ferry (Hawkins) - 2:55
22. Second Balcony Jump (Cooper) - 2:47
23. See What I Mean? (Chapman) - 3:01
24. Jackie Boy (Chapman) - 3:07

Лог создания рипа
EAC extraction logfile from 11. October 2007, 18:47 for CD
Al Cooper's Savoy Sultans / 1938-1941

Used drive  : HL-DT-STCDRW/DVD GCC4482   Adapter: 1  ID: 0
Read mode   : Secure with NO C2, accurate stream, disable cache
Read offset correction : 6
Overread into Lead-In and Lead-Out : No

Used output format : C:\Eac\Codecs\flac.exe   (User Defined Encoder)
                     320 kBit/s
                     Additional command line options : -8 -V -T "artist=%a" -T "title=%t" -T "album=%g" -T "date=%y" -T "tracknumber=%n" -T "genre=%m" -T "comment=EAC Flac 1.1.2 -8" %s

Other options      :
    Fill up missing offset samples with silence : Yes
    Delete leading and trailing silent blocks : No
    Installed external ASPI interface

Track  1
     Filename C:\Documents and Settings\Desktop\coop\01 - Jump Steady.wav

     Pre-gap length  0:00:02.42

     Peak level 77.2 %
     Track quality 100.0 %
     Test CRC FD52F36B
     Copy CRC FD52F36B
     Copy OK

Track  2
     Filename C:\Documents and Settings\Desktop\coop\02 - The Thing.wav

     Pre-gap length  0:00:02.00

     Peak level 79.5 %
     Track quality 100.0 %
     Test CRC 26058BD2
     Copy CRC 26058BD2
     Copy OK

Track  3
     Filename C:\Documents and Settings\Desktop\coop\03 - Looney.wav

     Pre-gap length  0:00:01.46

     Peak level 82.0 %
     Track quality 100.0 %
     Test CRC FE8E8A2E
     Copy CRC FE8E8A2E
     Copy OK

Track  4
     Filename C:\Documents and Settings\Desktop\coop\04 - Rhythm Doctor Man.wav

     Pre-gap length  0:00:01.86

     Peak level 93.4 %
     Track quality 100.0 %
     Test CRC 25CA39DF
     Copy CRC 25CA39DF
     Copy OK

Track  5
     Filename C:\Documents and Settings\Desktop\coop\05 - Gettin' in the Groove.wav

     Pre-gap length  0:00:02.09

     Peak level 79.9 %
     Track quality 100.0 %
     Test CRC 2D9B558A
     Copy CRC 2D9B558A
     Copy OK

Track  6
     Filename C:\Documents and Settings\Desktop\coop\06 - Someone Outside Is Taking Your Mind off Me.wav

     Pre-gap length  0:00:02.13

     Peak level 76.5 %
     Track quality 100.0 %
     Test CRC 28D9312A
     Copy CRC 28D9312A
     Copy OK

Track  7
     Filename C:\Documents and Settings\Desktop\coop\07 - Jeep's Blues.wav

     Pre-gap length  0:00:02.06

     Peak level 99.9 %
     Track quality 100.0 %
     Test CRC A33DB71F
     Copy CRC A33DB71F
     Copy OK

Track  8
     Filename C:\Documents and Settings\Desktop\coop\08 - You Never Miss the Water (Till the Well Runs Dry).wav

     Pre-gap length  0:00:01.77

     Peak level 86.4 %
     Track quality 99.9 %
     Test CRC 49E2DF68
     Copy CRC 49E2DF68
     Copy OK

Track  9
     Filename C:\Documents and Settings\Desktop\coop\09 - Stitches.wav

     Pre-gap length  0:00:02.00

     Peak level 91.6 %
     Track quality 100.0 %
     Test CRC 5CBF3DB8
     Copy CRC 5CBF3DB8
     Copy OK

Track 10
     Filename C:\Documents and Settings\Desktop\coop\10 - Jumpin' at the Savoy.wav

     Pre-gap length  0:00:01.82

     Peak level 70.0 %
     Track quality 100.0 %
     Test CRC 02941379
     Copy CRC 02941379
     Copy OK

Track 11
     Filename C:\Documents and Settings\Desktop\coop\11 - We'd Rather Jump Than Swing.wav

     Pre-gap length  0:00:01.84

     Peak level 91.4 %
     Track quality 100.0 %
     Test CRC 2725EC36
     Copy CRC 2725EC36
     Copy OK

Track 12
     Filename C:\Documents and Settings\Desktop\coop\12 - Draggin' My Heart Around.wav

     Pre-gap length  0:00:01.62

     Peak level 60.3 %
     Track quality 100.0 %
     Test CRC 6177DED2
     Copy CRC 6177DED2
     Copy OK

Track 13
     Filename C:\Documents and Settings\Desktop\coop\13 - Little Sally Water.wav

     Pre-gap length  0:00:01.82

     Peak level 65.0 %
     Track quality 100.0 %
     Test CRC 5F46CA3C
     Copy CRC 5F46CA3C
     Copy OK

Track 14
     Filename C:\Documents and Settings\Desktop\coop\14 - Jumpin' the Blues.wav

     Pre-gap length  0:00:01.76

     Peak level 73.1 %
     Track quality 100.0 %
     Test CRC 542539A3
     Copy CRC 542539A3
     Copy OK

Track 15
     Filename C:\Documents and Settings\Desktop\coop\15 - Love Gave Me You.wav

     Pre-gap length  0:00:01.86

     Peak level 58.2 %
     Track quality 100.0 %
     Test CRC 3B7CA16C
     Copy CRC 3B7CA16C
     Copy OK

Track 16
     Filename C:\Documents and Settings\Desktop\coop\16 - When I Grow Too Old to Dream.wav

     Pre-gap length  0:00:01.86

     Peak level 73.0 %
     Track quality 100.0 %
     Test CRC 49DFDE23
     Copy CRC 49DFDE23
     Copy OK

Track 17
     Filename C:\Documents and Settings\Desktop\coop\17 - Frenzy.wav

     Pre-gap length  0:00:02.42

     Peak level 69.3 %
     Track quality 99.9 %
     Test CRC 23F145B2
     Copy CRC 23F145B2
     Copy OK

Track 18
     Filename C:\Documents and Settings\Desktop\coop\18 - (If You Don't Know What You're Doing) Stop! And Ask Somebody.wav

     Pre-gap length  0:00:01.77

     Peak level 89.9 %
     Track quality 100.0 %
     Test CRC 5C61EAF0
     Copy CRC 5C61EAF0
     Copy OK

Track 19
     Filename C:\Documents and Settings\Desktop\coop\19 - Wishing and Crying for You.wav

     Pre-gap length  0:00:01.84

     Peak level 73.9 %
     Track quality 100.0 %
     Test CRC 89F4CEC9
     Copy CRC 89F4CEC9
     Copy OK

Track 20
     Filename C:\Documents and Settings\Desktop\coop\20 - Sophisticated Jump.wav

     Pre-gap length  0:00:01.80

     Peak level 74.6 %
     Track quality 100.0 %
     Test CRC 38205C21
     Copy CRC 38205C21
     Copy OK

Track 21
     Filename C:\Documents and Settings\Desktop\coop\21 - Norfolk Ferry.wav

     Pre-gap length  0:00:01.49

     Peak level 73.4 %
     Track quality 100.0 %
     Test CRC 5B803A9D
     Copy CRC 5B803A9D
     Copy OK

Track 22
     Filename C:\Documents and Settings\Desktop\coop\22 - Second Balcony Jump.wav

     Pre-gap length  0:00:01.53

     Peak level 69.0 %
     Track quality 99.9 %
     Test CRC F355B45D
     Copy CRC F355B45D
     Copy OK

Track 23
     Filename C:\Documents and Settings\Desktop\coop\23 - See What I Mean .wav

     Pre-gap length  0:00:01.53

     Peak level 86.7 %
     Track quality 100.0 %
     Test CRC 1AD50CB2
     Copy CRC 1AD50CB2
     Copy OK

Track 24
     Filename C:\Documents and Settings\Desktop\coop\24 - Jackie Boy.wav

     Pre-gap length  0:00:01.56

     Peak level 73.9 %
     Track quality 99.9 %
     Test CRC B72A541F
     Copy CRC B72A541F
     Copy OK

No errors occured

End of status report
Лог проверки качества
2443941535 31759100 01 - Jump Steady.wav
3815234057 34997804 02 - The Thing.wav
714494298 34120508 03 - Looney.wav
2064670357 30058604 04 - Rhythm Doctor Man.wav
2621379541 31493324 05 - Gettin' in the Groove.wav
2272931335 35534060 06 - Someone Outside Is Taking Your Mind off Me.wav
228653953 34256924 07 - Jeep's Blues.wav
2795392603 29110748 08 - You Never Miss the Water (Till the Well Runs Dry).wav
727556919 31022924 09 - Stitches.wav
1667023926 30324380 10 - Jumpin' at the Savoy.wav
1935313484 30380828 11 - We'd Rather Jump Than Swing.wav
595445536 28906124 12 - Draggin' My Heart Around.wav
391496138 27048044 13 - Little Sally Water.wav
864003427 28376924 14 - Jumpin' the Blues.wav
2850900291 29489420 15 - Love Gave Me You.wav
2500586174 26958668 16 - When I Grow Too Old to Dream.wav
951080604 31512140 17 - Frenzy.wav
878850937 31575644 18 - (If You Don't Know What You're Doing) Stop! And Ask Somebody.wav
784192415 32109548 19 - Wishing and Crying for You.wav
33419657 34245164 20 - Sophisticated Jump.wav
4018594754 31846124 21 - Norfolk Ferry.wav
2276868470 30399644 22 - Second Balcony Jump.wav
2703821929 32963324 23 - See What I Mean .wav
3843462759 33857084 24 - Jackie Boy.wav

auCDtect: CD records authenticity detector, version 0.8.2
Copyright (c) 2004 Oleg Berngardt. All rights reserved.
Copyright (c) 2004 Alexander Djourik. All rights reserved.
------------------------------------------------------------
Processing file: [01 - Jump Steady.wav]

------------------------------------------------------------
This track looks like CDDA with probability 100%

------------------------------------------------------------
Processing file: [02 - The Thing.wav]

------------------------------------------------------------
This track looks like CDDA with probability 100%

------------------------------------------------------------
Processing file: [03 - Looney.wav]

------------------------------------------------------------
This track looks like CDDA with probability 100%

------------------------------------------------------------
Processing file: [04 - Rhythm Doctor Man.wav]

------------------------------------------------------------
This track looks like CDDA with probability 100%

------------------------------------------------------------
Processing file: [05 - Gettin' in the Groove.wav]

------------------------------------------------------------
This track looks like CDDA with probability 100%

------------------------------------------------------------
Processing file: [06 - Someone Outside Is Taking Your Mind off Me.wav]

------------------------------------------------------------
This track looks like CDDA with probability 43%

------------------------------------------------------------
Processing file: [07 - Jeep's Blues.wav]

------------------------------------------------------------
This track looks like CDDA with probability 43%

------------------------------------------------------------
Processing file: [08 - You Never Miss the Water (Till the Well Runs Dry).wav]

------------------------------------------------------------
This track looks like CDDA with probability 92%

------------------------------------------------------------
Processing file: [09 - Stitches.wav]

------------------------------------------------------------
This track looks like CDDA with probability 100%

------------------------------------------------------------
Processing file: [10 - Jumpin' at the Savoy.wav]

------------------------------------------------------------
This track looks like CDDA with probability 100%

------------------------------------------------------------
Processing file: [11 - We'd Rather Jump Than Swing.wav]

------------------------------------------------------------
This track looks like CDDA with probability 99%

------------------------------------------------------------
Processing file: [12 - Draggin' My Heart Around.wav]

------------------------------------------------------------
This track looks like CDDA with probability 100%

------------------------------------------------------------
Processing file: [13 - Little Sally Water.wav]

------------------------------------------------------------
This track looks like CDDA with probability 100%

------------------------------------------------------------
Processing file: [14 - Jumpin' the Blues.wav]

------------------------------------------------------------
This track looks like CDDA with probability 100%

------------------------------------------------------------
Processing file: [15 - Love Gave Me You.wav]

------------------------------------------------------------
This track looks like CDDA with probability 100%

------------------------------------------------------------
Processing file: [16 - When I Grow Too Old to Dream.wav]

------------------------------------------------------------
This track looks like CDDA with probability 99%

------------------------------------------------------------
Processing file: [17 - Frenzy.wav]

------------------------------------------------------------
This track looks like CDDA with probability 100%

------------------------------------------------------------
Processing file: [18 - (If You Don't Know What You're Doing) Stop! And Ask Somebody.wav]

------------------------------------------------------------
This track looks like CDDA with probability 100%

------------------------------------------------------------
Processing file: [19 - Wishing and Crying for You.wav]

------------------------------------------------------------
This track looks like CDDA with probability 100%

------------------------------------------------------------
Processing file: [20 - Sophisticated Jump.wav]

------------------------------------------------------------
This track looks like CDDA with probability 100%

------------------------------------------------------------
Processing file: [21 - Norfolk Ferry.wav]

------------------------------------------------------------
This track looks like CDDA with probability 99%

------------------------------------------------------------
Processing file: [22 - Second Balcony Jump.wav]

------------------------------------------------------------
This track looks like CDDA with probability 100%

------------------------------------------------------------
Processing file: [23 - See What I Mean .wav]

------------------------------------------------------------
This track looks like CDDA with probability 100%

------------------------------------------------------------
Processing file: [24 - Jackie Boy.wav]

------------------------------------------------------------
This track looks like CDDA with probability 100%

------------------------------------------------------------
Final Conclusion:
------------------------------------------------------------
These tracks looks like CDDA with probability 100%
Приватный:
Нет (DHT включён)
Размер:
252.48 Мб (264,743,162 байт) » файлов: 35
Участники:
0 раздают, 0 качают (0 участников всего)
Внешние участники:
3 раздают, 1 качают (4 участников всего) [ Обновить ]
11:21
225
Нет комментариев. Ваш будет первым!