Вы используете незарегистрированную версию компонента "Вкладки"!

Поиск

1992 Jabbo Smith's Rhythm Aces - 1929-1938 {The Chronological Classics CC669} [CD]

1992 Jabbo Smith's Rhythm Aces - 1929-1938 {The Chronological Classics CC669} [CD]
Стили:
Дата записи диска:
29 января 1929 - 1 февраля 1938
Издатель (лейбл):
Номер по каталогу:
CC669
Доп. инфо:

Дата выпуска: Nov 19, 1996
Производитель диска, страна: France
Страна исполнителя: USA
Тип: Compilation
Аудио кодек: FLAC
Тип рипа: (tracks + .cue)
Битрейт аудио: lossless
Сканы: Все страницы, вкладыши и диск. 300dpi, png jpg
Продолжительность: 73:51
Источник: torrent
Риппер: weejie

Лог создания рипа
EAC extraction logfile from 11. May 2008, 9:18 for CD
Jabbo Smith / 1929-1938
Used drive : HL-DT-STCDRW/DVD GCC4482 Adapter: 1 ID: 0
Read mode : Secure with NO C2, accurate stream, disable cache
Read offset correction : 6
Overread into Lead-In and Lead-Out : No
Used output format : C:\Eac\Codecs\flac.exe (User Defined Encoder)
320 kBit/s
Additional command line options : -8 -V -T "artist=%a" -T "title=%t" -T "album=%g" -T "date=%y" -T "tracknumber=%n" -T "genre=%m" -T "comment=EAC Flac 1.1.2 -8" %s
Other options :
Fill up missing offset samples with silence : Yes
Delete leading and trailing silent blocks : No
Installed external ASPI interface
Track 1
Filename C:\Documents and Settings\jabbo\01 - Jazz Battle.wav
Pre-gap length 0:00:02.44
Peak level 99.3 %
Track quality 100.0 %
Test CRC B556CADD
Copy CRC B556CADD
Copy OK
Track 2
Filename C:\Documents and Settings\jabbo\02 - Little Willie Blues.wav
Pre-gap length 0:00:02.33
Peak level 90.7 %
Track quality 99.9 %
Test CRC 971A5D63
Copy CRC 971A5D63
Copy OK
Track 3
Filename C:\Documents and Settings\jabbo\03 - Sleepy Time Blues.wav
Pre-gap length 0:00:01.53
Peak level 68.7 %
Track quality 100.0 %
Test CRC A4B70BBA
Copy CRC A4B70BBA
Copy OK
Track 4
Filename C:\Documents and Settings\jabbo\04 - Take Your Time.wav
Pre-gap length 0:00:01.84
Peak level 95.8 %
Track quality 99.9 %
Test CRC 739C7BD8
Copy CRC 739C7BD8
Copy OK
Track 5
Filename C:\Documents and Settings\jabbo\05 - Sweet And Low Blues.wav
Pre-gap length 0:00:02.20
Peak level 93.8 %
Track quality 100.0 %
Test CRC 08372801
Copy CRC 08372801
Copy OK
Track 6
Filename C:\Documents and Settings\jabbo\06 - Take Me To The River.wav
Pre-gap length 0:00:01.84
Peak level 96.7 %
Track quality 100.0 %
Test CRC E383181B
Copy CRC E383181B
Copy OK
Track 7
Filename C:\Documents and Settings\jabbo\07 - Ace Of Rhythm.wav
Pre-gap length 0:00:02.73
Peak level 94.4 %
Track quality 100.0 %
Test CRC DE964498
Copy CRC DE964498
Copy OK
Track 8
Filename C:\Documents and Settings\jabbo\08 - Let's Get Together.wav
Pre-gap length 0:00:01.57
Peak level 85.3 %
Track quality 100.0 %
Test CRC C102380D
Copy CRC C102380D
Copy OK
Track 9
Filename C:\Documents and Settings\jabbo\09 - Sau-Sha Stomp.wav
Pre-gap length 0:00:01.56
Peak level 97.9 %
Track quality 100.0 %
Test CRC 419624C8
Copy CRC 419624C8
Copy OK
Track 10
Filename C:\Documents and Settings\jabbo\10 - Michigander Blues.wav
Pre-gap length 0:00:01.73
Peak level 84.4 %
Track quality 100.0 %
Test CRC BFB16547
Copy CRC BFB16547
Copy OK
Track 11
Filename C:\Documents and Settings\jabbo\11 - Decatur Street Tutti.wav
Pre-gap length 0:00:01.76
Peak level 71.8 %
Track quality 100.0 %
Test CRC 684EC56A
Copy CRC 684EC56A
Copy OK
Track 12
Filename C:\Documents and Settings\jabbo\12 - Till Times Get Better.wav
Pre-gap length 0:00:02.62
Peak level 76.2 %
Track quality 100.0 %
Test CRC 96ED4BDA
Copy CRC 96ED4BDA
Copy OK
Track 13
Filename C:\Documents and Settings\jabbo\13 - Lina Blues.wav
Pre-gap length 0:00:03.16
Peak level 77.3 %
Track quality 99.9 %
Test CRC 52E0EB26
Copy CRC 52E0EB26
Copy OK
Track 14
Filename C:\Documents and Settings\jabbo\14 - Weird And Blue.wav
Pre-gap length 0:00:01.66
Peak level 93.8 %
Track quality 100.0 %
Test CRC 18103F58
Copy CRC 18103F58
Copy OK
Track 15
Filename C:\Documents and Settings\jabbo\15 - Croonin' The Blues.wav
Pre-gap length 0:00:01.29
Peak level 88.4 %
Track quality 100.0 %
Test CRC F100F443
Copy CRC F100F443
Copy OK
Track 16
Filename C:\Documents and Settings\jabbo\16 - I Got The Stinger.wav
Pre-gap length 0:00:01.20
Peak level 98.0 %
Track quality 100.0 %
Test CRC 60A61C17
Copy CRC 60A61C17
Copy OK
Track 17
Filename C:\Documents and Settings\jabbo\17 - Boston Skuffle.wav
Pre-gap length 0:00:01.73
Peak level 76.2 %
Track quality 100.0 %
Test CRC 7103F76A
Copy CRC 7103F76A
Copy OK
Track 18
Filename C:\Documents and Settings\jabbo\18 - Tanguay Blues.wav
Pre-gap length 0:00:01.50
Peak level 76.2 %
Track quality 100.0 %
Test CRC 22F27BD0
Copy CRC 22F27BD0
Copy OK
Track 19
Filename C:\Documents and Settings\jabbo\19 - Band Box Stomp.wav
Pre-gap length 0:00:01.36
Peak level 71.0 %
Track quality 100.0 %
Test CRC 729701C0
Copy CRC 729701C0
Copy OK
Track 20
Filename C:\Documents and Settings\jabbo\20 - Moanful Blues.wav
Pre-gap length 0:00:01.56
Peak level 62.2 %
Track quality 100.0 %
Test CRC F117A2B0
Copy CRC F117A2B0
Copy OK
Track 21
Filename C:\Documents and Settings\jabbo\21 - Rhythm In Spain.wav
Pre-gap length 0:00:01.53
Peak level 67.7 %
Track quality 100.0 %
Test CRC B615DBA4
Copy CRC B615DBA4
Copy OK
Track 22
Filename C:\Documents and Settings\jabbo\22 - Absolutely.wav
Pre-gap length 0:00:01.73
Peak level 71.7 %
Track quality 100.0 %
Test CRC E6EAD241
Copy CRC E6EAD241
Copy OK
Track 23
Filename C:\Documents and Settings\jabbo\23 - More Rain, More Rest.wav
Pre-gap length 0:00:01.64
Peak level 69.5 %
Track quality 100.0 %
Test CRC 3CAC6C3B
Copy CRC 3CAC6C3B
Copy OK
Track 24
Filename C:\Documents and Settings\jabbo\24 - How Can Cupid Be So Stupid .wav
Pre-gap length 0:00:01.56
Peak level 49.7 %
Track quality 99.9 %
Test CRC 6F6B28EE
Copy CRC 6F6B28EE
Copy OK
No errors occured
End of status report
Лог проверки качества
406471892 29075468 01 - Jazz Battle.wav
875479789 36667724 02 - Little Willie Blues.wav
1206486699 36921740 03 - Sleepy Time Blues.wav
169351114 30164444 04 - Take Your Time.wav
1829019066 35950364 05 - Sweet And Low Blues.wav
1832965775 30917084 06 - Take Me To The River.wav
3625465262 31446284 07 - Ace Of Rhythm.wav
140835399 37860188 08 - Let's Get Together.wav
811610610 33358460 09 - Sau-Sha Stomp.wav
2816144802 36107948 10 - Michigander Blues.wav
660099179 30423164 11 - Decatur Street Tutti.wav
2196565737 34139324 12 - Till Times Get Better.wav
1452442838 37780220 13 - Lina Blues.wav
204637044 33109148 14 - Weird And Blue.wav
3589494717 34586204 15 - Croonin' The Blues.wav
3625397256 35804540 16 - I Got The Stinger.wav
2312766019 30728924 17 - Boston Skuffle.wav
1821009345 30322028 18 - Tanguay Blues.wav
2662023276 32128364 19 - Band Box Stomp.wav
2993818190 32746940 20 - Moanful Blues.wav
4218498141 29470604 21 - Rhythm In Spain.wav
2767616910 32234204 22 - Absolutely.wav
1412706839 29487068 23 - More Rain, More Rest.wav
4097633952 33680684 24 - How Can Cupid Be So Stupid .wav
auCDtect: CD records authenticity detector, version 0.8.2
Copyright (c) 2004 Oleg Berngardt. All rights reserved.
Copyright (c) 2004 Alexander Djourik. All rights reserved.
------------------------------------------------------------
Processing file: [01 - Jazz Battle.wav]
------------------------------------------------------------
This track looks like CDDA with probability 100%
------------------------------------------------------------
Processing file: [02 - Little Willie Blues.wav]
------------------------------------------------------------
This track looks like CDDA with probability 100%
------------------------------------------------------------
Processing file: [03 - Sleepy Time Blues.wav]
------------------------------------------------------------
This track looks like CDDA with probability 100%
------------------------------------------------------------
Processing file: [04 - Take Your Time.wav]
------------------------------------------------------------
This track looks like CDDA with probability 100%
------------------------------------------------------------
Processing file: [05 - Sweet And Low Blues.wav]
------------------------------------------------------------
This track looks like CDDA with probability 100%
------------------------------------------------------------
Processing file: [06 - Take Me To The River.wav]
------------------------------------------------------------
This track looks like CDDA with probability 100%
------------------------------------------------------------
Processing file: [07 - Ace Of Rhythm.wav]
------------------------------------------------------------
This track looks like CDDA with probability 100%
------------------------------------------------------------
Processing file: [08 - Let's Get Together.wav]
------------------------------------------------------------
This track looks like CDDA with probability 99%
------------------------------------------------------------
Processing file: [09 - Sau-Sha Stomp.wav]
------------------------------------------------------------
This track looks like CDDA with probability 99%
------------------------------------------------------------
Processing file: [10 - Michigander Blues.wav]
------------------------------------------------------------
This track looks like CDDA with probability 100%
------------------------------------------------------------
Processing file: [11 - Decatur Street Tutti.wav]
------------------------------------------------------------
This track looks like CDDA with probability 100%
------------------------------------------------------------
Processing file: [12 - Till Times Get Better.wav]
------------------------------------------------------------
This track looks like CDDA with probability 100%
------------------------------------------------------------
Processing file: [13 - Lina Blues.wav]
------------------------------------------------------------
This track looks like CDDA with probability 100%
------------------------------------------------------------
Processing file: [14 - Weird And Blue.wav]
------------------------------------------------------------
This track looks like CDDA with probability 100%
------------------------------------------------------------
Processing file: [15 - Croonin' The Blues.wav]
------------------------------------------------------------
This track looks like CDDA with probability 99%
------------------------------------------------------------
Processing file: [16 - I Got The Stinger.wav]
------------------------------------------------------------
This track looks like CDDA with probability 100%
------------------------------------------------------------
Processing file: [17 - Boston Skuffle.wav]
------------------------------------------------------------
This track looks like CDDA with probability 99%
------------------------------------------------------------
Processing file: [18 - Tanguay Blues.wav]
------------------------------------------------------------
This track looks like CDDA with probability 100%
------------------------------------------------------------
Processing file: [19 - Band Box Stomp.wav]
------------------------------------------------------------
This track looks like CDDA with probability 100%
------------------------------------------------------------
Processing file: [20 - Moanful Blues.wav]
------------------------------------------------------------
This track looks like CDDA with probability 100%
------------------------------------------------------------
Processing file: [21 - Rhythm In Spain.wav]
------------------------------------------------------------
This track looks like CDDA with probability 99%
------------------------------------------------------------
Processing file: [22 - Absolutely.wav]
------------------------------------------------------------
This track looks like CDDA with probability 100%
------------------------------------------------------------
Processing file: [23 - More Rain, More Rest.wav]
------------------------------------------------------------
This track looks like CDDA with probability 100%
------------------------------------------------------------
Processing file: [24 - How Can Cupid Be So Stupid .wav]
------------------------------------------------------------
This track looks like CDDA with probability 100%
------------------------------------------------------------
Final Conclusion:
------------------------------------------------------------
These tracks looks like CDDA with probability 100%
Any questions - support@pro-jazz.com. Есть вопросы - support@pro-jazz.com
10:02
315
Нет комментариев. Ваш будет первым!