Поиск

1992 Don Byron - Tuskegee Experiment {Elektra Nonesuch 9 79280-2}

1992 Don Byron - Tuskegee Experiment {Elektra Nonesuch 9 79280-2}
Страна-производитель диска (релиза):
USA
Дата записи диска:
ноябрь 1990 - июль 1991
Дата издания диска:
11 февраля 1992
Издатель (лейбл):
Номер по каталогу:
9 79280-2
Носитель:
CD
Битрейт аудио:
lossless
Аудиокодек:
FLAC (*.flac)
Тип рипа:
tracks
Время звучания:
61:19
Наличие сканов:
  • да
Релизёр (источник):
sasha4100

Состав:
  • Pheeroan akLaff    Drums
  • Joe Berkovitz    Piano
  • Greta Buck    Violin
  • Don Byron    Clarinet, Clarinet (Bass), Composer
  • Gene Curtis    Engineer
  • Kenny Davis    Bass (Electric)
  • Bill Frisell    Guitar
  • Edsel Gomez    Piano
  • Arthur Moorhead    Producer
  • Ralph Peterson    Drums
  • Lonnie Plaxico    Bass
  • Richie Schwarz    Marimba
  • Reggie Workman    Bass

Записано в 

  • Clinton Recording Studios, New York, NY
  • Power Station, New York, NY

1. Waltz for Ellen 3:05
2. Tuskegee Strutter's Ball 8:08
3. In Memoriam: Uncle Dan 5:20
4. Next Love 9:50
5. Tears 8:12
6. Mainstem 7:26
7. Diego Rivera 9:23
8. Tuskegee Experiment 6:27
9. "Auf einer Burg" 3:28

Лог создания рипа
EAC extraction logfile from 15. December 2006, 1:02 for CD
Don Byron / Tuskegee Experiments

Used drive : PLEXTOR CD-R PX-W4824A Adapter: 0 ID: 1
Read mode : Secure with NO C2, accurate stream, disable cache
Read offset correction : 98
Overread into Lead-In and Lead-Out : Yes

Used output format : C:\Programme\FLAC\flac.exe (User Defined Encoder)
128 kBit/s
Additional command line options : -8 -A tukey(0.25) -A gauss(0.1875) -b 4096 -V -T "artist=%a" -T "title=%t" -T "album=%g" -T "date=%y" -T "tracknumber=%n" -T "genre=%m" -T "comment=Exact Audio Copy 0.95b4, Flac 1.1.3. -8" %s

Other options :
Fill up missing offset samples with silence : Yes
Delete leading and trailing silent blocks : No
Installed external ASPI interface

Track 1
Filename C:\Don Byron - Tuskegee Experiment (1990) [FLAC]\01 - Waltz for Ellen.wav

Pre-gap length 0:00:02.00

Peak level 52.0 %
Track quality 100.0 %
Test CRC 3A07D254
Copy CRC 3A07D254
Copy OK

Track 2
Filename C:\Don Byron - Tuskegee Experiment (1990) [FLAC]\02 - Tuskegee Strutter's Ball.wav

Pre-gap length 0:00:03.42

Peak level 97.3 %
Track quality 100.0 %
Test CRC AF39C751
Copy CRC AF39C751
Copy OK

Track 3
Filename C:\Don Byron - Tuskegee Experiment (1990) [FLAC]\03 - In Memoriam- Uncle Dan.wav

Pre-gap length 0:00:05.42

Peak level 54.0 %
Track quality 100.0 %
Test CRC 44D4784A
Copy CRC 44D4784A
Copy OK

Track 4
Filename C:\Don Byron - Tuskegee Experiment (1990) [FLAC]\04 - Next Love.wav

Pre-gap length 0:00:05.06

Peak level 97.3 %
Track quality 100.0 %
Test CRC 01AAB4EB
Copy CRC 01AAB4EB
Copy OK

Track 5
Filename C:\Don Byron - Tuskegee Experiment (1990) [FLAC]\05 - Tears.wav

Pre-gap length 0:00:05.56

Peak level 97.3 %
Track quality 100.0 %
Test CRC 1FCD731E
Copy CRC 1FCD731E
Copy OK

Track 6
Filename C:\Don Byron - Tuskegee Experiment (1990) [FLAC]\06 - Mainstem.wav

Pre-gap length 0:00:02.73

Peak level 97.3 %
Track quality 99.9 %
Test CRC E5992120
Copy CRC E5992120
Copy OK

Track 7
Filename C:\Don Byron - Tuskegee Experiment (1990) [FLAC]\07 - Diego Rivera.wav

Pre-gap length 0:00:05.40

Peak level 97.3 %
Track quality 100.0 %
Test CRC 66D6B02A
Copy CRC 66D6B02A
Copy OK

Track 8
Filename C:\Don Byron - Tuskegee Experiment (1990) [FLAC]\08 - Tuskegee Experiment.wav

Pre-gap length 0:00:04.06

Peak level 97.3 %
Track quality 100.0 %
Test CRC 84661264
Copy CRC 84661264
Copy OK

Track 9
Filename C:\Don Byron - Tuskegee Experiment (1990) [FLAC]\09 - Auf einer Burg.wav

Pre-gap length 0:00:05.60

Peak level 73.7 %
Track quality 100.0 %
Test CRC B795D5C5
Copy CRC B795D5C5
Copy OK

No errors occured

End of status report
Приватный:
Нет (DHT включён)
Размер:
337.46 Мб (353,847,324 байт) » файлов: 21
Участники:
9 раздают, 1 качают (10 участников всего)
Внешние участники:
2 раздают, 1 качают (3 участников всего) [ Обновить ]
01:40
190
RSS
Нет комментариев. Ваш будет первым!