Поиск

1991 Alan Broadbent - Live at the Maybeck Recital Hall, Vol. 14 {Concord Jazz} [CD]

1991 Alan Broadbent - Live at the Maybeck Recital Hall, Vol. 14 {Concord Jazz} [CD]
Стили:
Дата записи диска:
21 апреля 1991
Место записи:
Maybeck Recital Hall, Berkeley, CA, USA
Издатель (лейбл):
Номер по каталогу:
CCD-4488
Носитель:
CD
Тип рипа:
tracks+.cue
Аудиокодек:
FLAC (*.flac)
Битрейт аудио:
lossless
Время звучания:
01:01:12
Наличие сканов:
только обложка
Страна-производитель диска (релиза):
USA
Релизёр (источник):
M0p94ok
Доп. инфо:

Когда Алану Бродбенту была предоставлена ​​возможность проявить себя в этом сольном сеттинге на холмах Беркли, он сохранил все относительно скромно и по существу, в отличие от большинства пианистов из серии «Maybeck». Но ярче не обязательно лучше, и Бродбент извлекает намного больше музыки из меньшего количества нот в этих 13 выборках. Среди них три оригинала, самый длинный из которых, "Woody 'N' I" (несомненно, памятник его покойному работодателю, Вуди Герману), достигает кульминации в могучих волнах, более близких по идиоме к Рахманинову, чем к джазу как таковому. Бродбент особенно хорошо умеет делать отличные сольные перерывы с ходячим басом, особенно в «Strollin '», «Sweet and Lovely» и «Upper Manhattan Medical Group». В другом месте «I Hear a Rhapsody» содержит отголоски «Along Came Betty», «Oleo» опирается на некоторую унисонную октавную работу, «Lennie's Pennies» имеет восхитительно извилистые партии бопа для правой руки, «Strollin '» Горация Сильвера несколько возвращает нас к более ранняя эра замкнутых рук, и да, "Parisian Thoroughfare" наконец-то включает эту технику в потоке.

Лог создания рипа
Exact Audio Copy V1.0 beta 3 from 29. August 2011

EAC extraction logfile from 6. June 2015, 18:35

Alan Broadbent / Live At Maybeck Recital Hall Volume Fourteen

Used drive  : HL-DT-STBDDVDRW CH12NS30   Adapter: 0  ID: 0

Read mode               : Secure
Utilize accurate stream : Yes
Defeat audio cache      : Yes
Make use of C2 pointers : No

Read offset correction                      : 6
Overread into Lead-In and Lead-Out          : No
Fill up missing offset samples with silence : Yes
Delete leading and trailing silent blocks   : No
Null samples used in CRC calculations       : Yes
Used interface                              : Native Win32 interface for Win NT & 2000
Gap handling                                : Appended to previous track

Used output format              : User Defined Encoder
Selected bitrate                : 1024 kBit/s
Quality                         : High
Add ID3 tag                     : No
Command line compressor         : C:\Program Files (x86)\Exact Audio Copy\Flac\flac.exe
Additional command line options : -8 -V -T "ARTIST=%artist%" -T "TITLE=%title%" -T "ALBUM=%albumtitle%" -T "DATE=%year%" -T "TRACKNUMBER=%tracknr%" -T "GENRE=%genre%" -T "PERFORMER=%albuminterpret%" -T "COMPOSER=%composer%" %haslyrics%--tag-from-file=LYRICS="%lyricsfile%"%haslyrics% -T "ALBUMARTIST=%albumartist%" -T "DISCNUMBER=%cdnumber%" -T "TOTALDISCS=%totalcds%" -T "TOTALTRACKS=%numtracks%" -T "COMMENT=%comment%" %source% -o %dest%

TOC of the extracted CD

     Track |   Start  |  Length  | Start sector | End sector
    ---------------------------------------------------------
        1  |  0:00.00 |  0:14.60 |         0    |     1109
        2  |  0:14.60 |  3:50.40 |      1110    |    18399
        3  |  4:05.25 |  3:15.15 |     18400    |    33039
        4  |  7:20.40 |  5:04.20 |     33040    |    55859
        5  | 12:24.60 |  3:48.15 |     55860    |    72974
        6  | 16:13.00 |  4:23.13 |     72975    |    92712
        7  | 20:36.13 |  4:26.47 |     92713    |   112709
        8  | 25:02.60 |  4:14.55 |    112710    |   131814
        9  | 29:17.40 |  6:58.13 |    131815    |   163177
       10  | 36:15.53 |  4:13.72 |    163178    |   182224
       11  | 40:29.50 |  5:39.53 |    182225    |   207702
       12  | 46:09.28 |  5:43.22 |    207703    |   233449
       13  | 51:52.50 |  5:14.23 |    233450    |   257022
       14  | 57:06.73 |  4:04.72 |    257023    |   275394

Track  1

     Filename G:\EAC Files\01 - Introduction.wav

     Pre-gap length  0:00:02.00

     Peak level 83.0 %
     Extraction speed 1.2 X
     Track quality 100.0 %
     Test CRC 83DBED15
     Copy CRC 83DBED15
     Accurately ripped (confidence 4)  [C919D50F]  (AR v2)
     Copy OK

Track  2

     Filename G:\EAC Files\02 - I Hear A Rhapsody.wav

     Peak level 79.4 %
     Extraction speed 2.0 X
     Track quality 100.0 %
     Test CRC AA8A8747
     Copy CRC AA8A8747
     Accurately ripped (confidence 4)  [09777EAF]  (AR v2)
     Copy OK

Track  3

     Filename G:\EAC Files\03 - Oleo.wav

     Peak level 80.7 %
     Extraction speed 1.0 X
     Track quality 99.9 %
     Test CRC F1CB3125
     Copy CRC F1CB3125
     Accurately ripped (confidence 4)  [FD19E6BD]  (AR v2)
     Copy OK

Track  4

     Filename G:\EAC Files\04 - You've Changed.wav

     Peak level 97.9 %
     Extraction speed 1.3 X
     Track quality 100.0 %
     Test CRC 172C3644
     Copy CRC 172C3644
     Accurately ripped (confidence 4)  [FC60A18F]  (AR v2)
     Copy OK

Track  5

     Filename G:\EAC Files\05 - Lennie's Pennies.wav

     Peak level 97.5 %
     Extraction speed 1.4 X
     Track quality 100.0 %
     Test CRC 26621673
     Copy CRC 26621673
     Accurately ripped (confidence 4)  [B65F543D]  (AR v2)
     Copy OK

Track  6

     Filename G:\EAC Files\06 - Strollin'.wav

     Peak level 93.7 %
     Extraction speed 1.5 X
     Track quality 100.0 %
     Test CRC D1D4BF4D
     Copy CRC D1D4BF4D
     Accurately ripped (confidence 4)  [2C8D7753]  (AR v2)
     Copy OK

Track  7

     Filename G:\EAC Files\07 - Peace.wav

     Peak level 95.1 %
     Extraction speed 1.6 X
     Track quality 100.0 %
     Test CRC 5687086F
     Copy CRC 5687086F
     Accurately ripped (confidence 4)  [A8191BA8]  (AR v2)
     Copy OK

Track  8

     Filename G:\EAC Files\08 - Nardis.wav

     Peak level 81.2 %
     Extraction speed 1.7 X
     Track quality 100.0 %
     Test CRC 3EF668E1
     Copy CRC 3EF668E1
     Accurately ripped (confidence 4)  [1AEDE9C8]  (AR v2)
     Copy OK

Track  9

     Filename G:\EAC Files\09 - Woody 'N I.wav

     Peak level 95.4 %
     Extraction speed 1.9 X
     Track quality 100.0 %
     Test CRC 851C3865
     Copy CRC 851C3865
     Accurately ripped (confidence 4)  [59E29ECB]  (AR v2)
     Copy OK

Track 10

     Filename G:\EAC Files\10 - Sweet And Lovely.wav

     Peak level 94.7 %
     Extraction speed 1.6 X
     Track quality 99.9 %
     Test CRC F526D972
     Copy CRC F526D972
     Accurately ripped (confidence 4)  [BAA834C6]  (AR v2)
     Copy OK

Track 11

     Filename G:\EAC Files\11 - Medocino Nights.wav

     Peak level 81.3 %
     Extraction speed 2.0 X
     Track quality 100.0 %
     Test CRC A42AE0BB
     Copy CRC A42AE0BB
     Accurately ripped (confidence 4)  [CB48A57F]  (AR v2)
     Copy OK

Track 12

     Filename G:\EAC Files\12 - Upper Manhattan Medical Group.wav

     Peak level 89.2 %
     Extraction speed 1.9 X
     Track quality 99.9 %
     Test CRC 70A72425
     Copy CRC 70A72425
     Accurately ripped (confidence 4)  [011CCA5E]  (AR v2)
     Copy OK

Track 13

     Filename G:\EAC Files\13 - Don't Ask Why.wav

     Peak level 82.4 %
     Extraction speed 2.2 X
     Track quality 100.0 %
     Test CRC 6834CF17
     Copy CRC 6834CF17
     Accurately ripped (confidence 4)  [DD78F7AF]  (AR v2)
     Copy OK

Track 14

     Filename G:\EAC Files\14 - Parisian Thoroughfare.wav

     Peak level 90.8 %
     Extraction speed 2.2 X
     Track quality 100.0 %
     Test CRC 352D03EC
     Copy CRC 352D03EC
     Accurately ripped (confidence 4)  [249DBC4A]  (AR v2)
     Copy OK

All tracks accurately ripped

No errors occurred

End of status report

==== Log checksum 275F2B725A87A2947B0D659D6F7F50834AE6906D294B3434AFEDAD171BD56587 ====
No seeders - write personal message to M0p94ok. Any questions - support@pro-jazz.com.
Нет сидеров - пишите в личку M0p94ok. Есть вопросы - support@pro-jazz.com
13:14
92
Нет комментариев. Ваш будет первым!