Поиск

1990 Teddy Wilson And His Orchestra - 1936-1937 {The Chronological Classics CC521} [CD]

1990 Teddy Wilson And His Orchestra - 1936-1937 {The Chronological Classics CC521} [CD]
Стили:
Издатель (лейбл):
Номер по каталогу:
CC521
Доп. инфо:

Год издания: 1990
Издатель (лейбл): Classics
Номер по каталогу: 521
Аудиокодек: FLAC (*.flac)
Тип рипа: tracks+.cue
Битрейт аудио: lossless
Продолжительность: 70:23
Источник: вата
Наличие сканов в содержимом раздачи: да

Лог создания рипа
Exact Audio Copy V1.0 beta 3 from 29. August 2011
EAC extraction logfile from 27. March 2012, 13:58
Teddy Wilson And His Orchestra / 1936-1938
Used drive  : HL-DT-STDVDRAM GT20N   Adapter: 2  ID: 0
Read mode               : Secure
Utilize accurate stream : Yes
Defeat audio cache      : Yes
Make use of C2 pointers : No
Read offset correction                      : 667
Overread into Lead-In and Lead-Out          : No
Fill up missing offset samples with silence : Yes
Delete leading and trailing silent blocks   : No
Null samples used in CRC calculations       : Yes
Used interface                              : Native Win32 interface for Win NT & 2000
Gap handling                                : Appended to previous track
Used output format              : User Defined Encoder
Selected bitrate                : 1024 kBit/s
Quality                         : High
Add ID3 tag                     : No
Command line compressor         : C:\Program Files (x86)\Exact Audio Copy\Flac\flac.exe
Additional command line options : -8 -V -T "ARTIST=%artist%" -T "TITLE=%title%" -T "ALBUM=%albumtitle%" -T "DATE=%year%" -T "TRACKNUMBER=%tracknr%" -T "GENRE=%genre%" -T "PERFORMER=%albuminterpret%" -T "COMPOSER=%composer%" %haslyrics%--tag-from-file=LYRICS="%lyricsfile%"%haslyrics% -T "ALBUMARTIST=%albumartist%" -T "DISCNUMBER=%cdnumber%" -T "TOTALDISCS=%totalcds%" -T "TOTALTRACKS=%numtracks%" -T "COMMENT=%comment%" %source% -o %dest%
TOC of the extracted CD
     Track |   Start  |  Length  | Start sector | End sector
    ---------------------------------------------------------
        1  |  0:00.33 |  2:55.62 |        33    |    13219
        2  |  2:56.20 |  2:53.03 |     13220    |    26197
        3  |  5:49.23 |  3:12.25 |     26198    |    40622
        4  |  9:01.48 |  3:16.62 |     40623    |    55384
        5  | 12:18.35 |  3:02.13 |     55385    |    69047
        6  | 15:20.48 |  3:13.52 |     69048    |    83574
        7  | 18:34.25 |  3:18.00 |     83575    |    98424
        8  | 21:52.25 |  3:08.40 |     98425    |   112564
        9  | 25:00.65 |  2:51.53 |    112565    |   125442
       10  | 27:52.43 |  3:27.57 |    125443    |   141024
       11  | 31:20.25 |  3:28.68 |    141025    |   156692
       12  | 34:49.18 |  2:53.37 |    156693    |   169704
       13  | 37:42.55 |  3:13.25 |    169705    |   184204
       14  | 40:56.05 |  2:40.00 |    184205    |   196204
       15  | 43:36.05 |  2:51.38 |    196205    |   209067
       16  | 46:27.43 |  3:10.37 |    209068    |   223354
       17  | 49:38.05 |  2:50.40 |    223355    |   236144
       18  | 52:28.45 |  2:55.55 |    236145    |   249324
       19  | 55:24.25 |  3:00.63 |    249325    |   262887
       20  | 58:25.13 |  3:00.30 |    262888    |   276417
       21  | 61:25.43 |  2:38.72 |    276418    |   288339
       22  | 64:04.40 |  3:09.70 |    288340    |   302584
       23  | 67:14.35 |  3:09.00 |    302585    |   316759
Track  1
     Filename E:\Teddy Wilson - 1936-1937 (1990) [FLAC] {Chronological Classics 521}\01 - You Turned The Tables On Me.wav
     Pre-gap length  0:00:02.44
     Peak level 87.7 %
     Extraction speed 2.2 X
     Track quality 100.0 %
     Test CRC 5247D762
     Copy CRC 5247D762
     Track not present in AccurateRip database
     Copy OK
Track  2
     Filename E:\Teddy Wilson - 1936-1937 (1990) [FLAC] {Chronological Classics 521}\02 - Sinhg, Baby, Sing.wav
     Pre-gap length  0:00:01.60
     Peak level 99.9 %
     Extraction speed 2.5 X
     Track quality 100.0 %
     Test CRC 3ACBCE1F
     Copy CRC 3ACBCE1F
     Cannot be verified as accurate (confidence 2)  [0BF37D46], AccurateRip returned [86822676]  (AR v2)
     Copy OK
Track  3
     Filename E:\Teddy Wilson - 1936-1937 (1990) [FLAC] {Chronological Classics 521}\03 - Easy To Love.wav
     Pre-gap length  0:00:01.64
     Peak level 99.8 %
     Extraction speed 2.7 X
     Track quality 100.0 %
     Test CRC AE512BD7
     Copy CRC AE512BD7
     Track not present in AccurateRip database
     Copy OK
Track  4
     Filename E:\Teddy Wilson - 1936-1937 (1990) [FLAC] {Chronological Classics 521}\04 - With Thee I Sing.wav
     Pre-gap length  0:00:01.64
     Peak level 100.0 %
     Extraction speed 2.8 X
     Track quality 100.0 %
     Test CRC DA26F9DA
     Copy CRC DA26F9DA
     Cannot be verified as accurate (confidence 2)  [D65F396E], AccurateRip returned [1DE09096]  (AR v2)
     Copy OK
Track  5
     Filename E:\Teddy Wilson - 1936-1937 (1990) [FLAC] {Chronological Classics 521}\05 - The Way You Look Tonight.wav
     Pre-gap length  0:00:01.42
     Peak level 88.3 %
     Extraction speed 2.9 X
     Track quality 100.0 %
     Test CRC 25B60510
     Copy CRC 25B60510
     Cannot be verified as accurate (confidence 2)  [AB0F5E1F], AccurateRip returned [5F1B747B]  (AR v2)
     Copy OK
Track  6
     Filename E:\Teddy Wilson - 1936-1937 (1990) [FLAC] {Chronological Classics 521}\06 - Who Loves You.wav
     Pre-gap length  0:00:01.37
     Peak level 100.0 %
     Extraction speed 3.2 X
     Track quality 100.0 %
     Test CRC F9B491B3
     Copy CRC F9B491B3
     Cannot be verified as accurate (confidence 2)  [24EFCB26], AccurateRip returned [AAE94D72]  (AR v2)
     Copy OK
Track  7
     Filename E:\Teddy Wilson - 1936-1937 (1990) [FLAC] {Chronological Classics 521}\07 - Pennies From Heaven.wav
     Pre-gap length  0:00:00.82
     Peak level 100.0 %
     Extraction speed 3.3 X
     Track quality 100.0 %
     Test CRC D4AF74AF
     Copy CRC D4AF74AF
     Track not present in AccurateRip database
     Copy OK
Track  8
     Filename E:\Teddy Wilson - 1936-1937 (1990) [FLAC] {Chronological Classics 521}\08 - That's Life I Guess.wav
     Pre-gap length  0:00:01.29
     Peak level 92.2 %
     Extraction speed 2.3 X
     Track quality 99.9 %
     Test CRC 3F7DB459
     Copy CRC 3F7DB459
     Cannot be verified as accurate (confidence 2)  [D226EBAE], AccurateRip returned [B6F857CF]  (AR v2)
     Copy OK
Track  9
     Filename E:\Teddy Wilson - 1936-1937 (1990) [FLAC] {Chronological Classics 521}\09 - Saillin'.wav
     Pre-gap length  0:00:00.53
     Peak level 92.7 %
     Extraction speed 1.8 X
     Track quality 100.0 %
     Test CRC CB4C7497
     Copy CRC CB4C7497
     Track not present in AccurateRip database
     Copy OK
Track 10
     Filename E:\Teddy Wilson - 1936-1937 (1990) [FLAC] {Chronological Classics 521}\10 - I Can't Give You Anything But Love.wav
     Pre-gap length  0:00:01.13
     Peak level 98.3 %
     Extraction speed 1.9 X
     Track quality 100.0 %
     Test CRC 01EEDE4D
     Copy CRC 01EEDE4D
     Track not present in AccurateRip database
     Copy OK
Track 11
     Filename E:\Teddy Wilson - 1936-1937 (1990) [FLAC] {Chronological Classics 521}\11 - Right Or Wrong (I'm With  You).wav
     Pre-gap length  0:00:00.56
     Peak level 88.7 %
     Extraction speed 2.0 X
     Track quality 100.0 %
     Test CRC 05B9087D
     Copy CRC 05B9087D
     Track not present in AccurateRip database
     Copy OK
Track 12
     Filename E:\Teddy Wilson - 1936-1937 (1990) [FLAC] {Chronological Classics 521}\12 - Where The Lazy River Goes By.wav
     Pre-gap length  0:00:02.64
     Peak level 93.1 %
     Extraction speed 1.9 X
     Track quality 100.0 %
     Test CRC 752F91B5
     Copy CRC 752F91B5
     Cannot be verified as accurate (confidence 2)  [B906FC86], AccurateRip returned [282BDE93]  (AR v2)
     Copy OK
Track 13
     Filename E:\Teddy Wilson - 1936-1937 (1990) [FLAC] {Chronological Classics 521}\13 - Tea For Two.wav
     Pre-gap length  0:00:01.89
     Peak level 83.3 %
     Extraction speed 2.1 X
     Track quality 100.0 %
     Test CRC BED65DC8
     Copy CRC BED65DC8
     Track not present in AccurateRip database
     Copy OK
Track 14
     Filename E:\Teddy Wilson - 1936-1937 (1990) [FLAC] {Chronological Classics 521}\14 - I'll See You In My Dreams.wav
     Pre-gap length  0:00:01.00
     Peak level 91.5 %
     Extraction speed 1.7 X
     Track quality 99.9 %
     Test CRC E952C988
     Copy CRC E952C988
     Cannot be verified as accurate (confidence 2)  [47CC583A], AccurateRip returned [F943A420]  (AR v2)
     Copy OK
Track 15
     Filename E:\Teddy Wilson - 1936-1937 (1990) [FLAC] {Chronological Classics 521}\15 - He Ain't Got Rhythm.wav
     Pre-gap length  0:00:01.06
     Peak level 99.9 %
     Extraction speed 2.1 X
     Track quality 100.0 %
     Test CRC 8A978DDD
     Copy CRC 8A978DDD
     Track not present in AccurateRip database
     Copy OK
Track 16
     Filename E:\Teddy Wilson - 1936-1937 (1990) [FLAC] {Chronological Classics 521}\16 - This Year's Kisses.wav
     Pre-gap length  0:00:01.24
     Peak level 95.3 %
     Extraction speed 2.2 X
     Track quality 100.0 %
     Test CRC 6C515F26
     Copy CRC 6C515F26
     Track not present in AccurateRip database
     Copy OK
Track 17
     Filename E:\Teddy Wilson - 1936-1937 (1990) [FLAC] {Chronological Classics 521}\17 - Why Was I Born.wav
     Pre-gap length  0:00:01.13
     Peak level 81.6 %
     Extraction speed 2.2 X
     Track quality 100.0 %
     Test CRC DB747F1A
     Copy CRC DB747F1A
     Track not present in AccurateRip database
     Copy OK
Track 18
     Filename E:\Teddy Wilson - 1936-1937 (1990) [FLAC] {Chronological Classics 521}\18 - I Must Have That Man.wav
     Pre-gap length  0:00:00.62
     Peak level 100.0 %
     Extraction speed 2.3 X
     Track quality 100.0 %
     Test CRC 851110AD
     Copy CRC 851110AD
     Track not present in AccurateRip database
     Copy OK
Track 19
     Filename E:\Teddy Wilson - 1936-1937 (1990) [FLAC] {Chronological Classics 521}\19 - The Mood That I'm In.wav
     Pre-gap length  0:00:01.00
     Peak level 74.1 %
     Extraction speed 2.3 X
     Track quality 100.0 %
     Test CRC 7075DD79
     Copy CRC 7075DD79
     Track not present in AccurateRip database
     Copy OK
Track 20
     Filename E:\Teddy Wilson - 1936-1937 (1990) [FLAC] {Chronological Classics 521}\20 - You Showed Me The Way.wav
     Pre-gap length  0:00:01.04
     Peak level 99.7 %
     Extraction speed 2.4 X
     Track quality 100.0 %
     Test CRC E8E1087F
     Copy CRC E8E1087F
     Track not present in AccurateRip database
     Copy OK
Track 21
     Filename E:\Teddy Wilson - 1936-1937 (1990) [FLAC] {Chronological Classics 521}\21 - Sentimental And Melancholy.wav
     Pre-gap length  0:00:01.06
     Peak level 100.0 %
     Extraction speed 2.3 X
     Track quality 100.0 %
     Test CRC 45C17E83
     Copy CRC 45C17E83
     Track not present in AccurateRip database
     Copy OK
Track 22
     Filename E:\Teddy Wilson - 1936-1937 (1990) [FLAC] {Chronological Classics 521}\22 - (This Is) My Last Affair.wav
     Pre-gap length  0:00:01.16
     Peak level 95.9 %
     Extraction speed 2.5 X
     Track quality 100.0 %
     Test CRC 19A6D784
     Copy CRC 19A6D784
     Track not present in AccurateRip database
     Copy OK
Track 23
     Filename E:\Teddy Wilson - 1936-1937 (1990) [FLAC] {Chronological Classics 521}\23 - Carelessly.wav
     Pre-gap length  0:00:01.26
     Peak level 100.0 %
     Extraction speed 2.5 X
     Track quality 100.0 %
     Test CRC CDB257DD
     Copy CRC CDB257DD
     Track not present in AccurateRip database
     Copy OK
 7 track(s) could not be verified as accurate
16 track(s) not present in the AccurateRip database
No tracks could be verified as accurate
You may have a different pressing from the one(s) in the database
No errors occurred
End of status report
==== Log checksum AD927916CBFFF7D22516D84FD6388776E0A9A43DDC82338E6DC3B4F0038F5B19 ====
Содержание индексной карты (.CUE)
REM GENRE Swing
REM DATE 1990
REM DISCID 4A107F17
REM COMMENT "ExactAudioCopy v1.0b3"
CATALOG 0000000000000
PERFORMER "Teddy Wilson And His Orchestra"
TITLE "1936-1937 {Chronological Classics, 521}"
FILE "01. You Turned The Tables On Me.flac" WAVE
  TRACK 01 AUDIO
    TITLE "You Turned The Tables On Me"
    PERFORMER "Teddy Wilson And His Orchestra"
    PREGAP 00:00:33
    INDEX 01 00:00:00
  TRACK 02 AUDIO
    TITLE "Sinhg, Baby, Sing"
    PERFORMER "Teddy Wilson And His Orchestra"
    INDEX 00 02:54:17
FILE "02. Sinhg, Baby, Sing.flac" WAVE
    INDEX 01 00:00:00
  TRACK 03 AUDIO
    TITLE "Easy To Love"
    PERFORMER "Teddy Wilson And His Orchestra"
    INDEX 00 02:51:30
FILE "03. Easy To Love.flac" WAVE
    INDEX 01 00:00:00
  TRACK 04 AUDIO
    TITLE "With Thee I Sing"
    PERFORMER "Teddy Wilson And His Orchestra"
    INDEX 00 03:10:52
FILE "04. With Thee I Sing.flac" WAVE
    INDEX 01 00:00:00
  TRACK 05 AUDIO
    TITLE "The Way You Look Tonight"
    PERFORMER "Teddy Wilson And His Orchestra"
    INDEX 00 03:15:30
FILE "05. The Way You Look Tonight.flac" WAVE
    INDEX 01 00:00:00
  TRACK 06 AUDIO
    TITLE "Who Loves You?"
    PERFORMER "Teddy Wilson And His Orchestra"
    INDEX 00 03:00:60
FILE "06. Who Loves You.flac" WAVE
    INDEX 01 00:00:00
  TRACK 07 AUDIO
    TITLE "Pennies From Heaven"
    PERFORMER "Teddy Wilson And His Orchestra"
    INDEX 00 03:12:65
FILE "07. Pennies From Heaven.flac" WAVE
    INDEX 01 00:00:00
  TRACK 08 AUDIO
    TITLE "That's Life I Guess"
    PERFORMER "Teddy Wilson And His Orchestra"
    INDEX 00 03:16:53
FILE "08. That's Life I Guess.flac" WAVE
    INDEX 01 00:00:00
  TRACK 09 AUDIO
    TITLE "Saillin'"
    PERFORMER "Teddy Wilson And His Orchestra"
    INDEX 00 03:08:00
FILE "09. Saillin'.flac" WAVE
    INDEX 01 00:00:00
  TRACK 10 AUDIO
    TITLE "I Can't Give You Anything But Love"
    PERFORMER "Teddy Wilson And His Orchestra"
    INDEX 00 02:50:43
FILE "10. I Can't Give You Anything But Love.flac" WAVE
    INDEX 01 00:00:00
  TRACK 11 AUDIO
    TITLE "Right Or Wrong (I'm With  You)"
    PERFORMER "Teddy Wilson And His Orchestra"
    INDEX 00 03:27:15
FILE "11. Right Or Wrong (I'm With  You).flac" WAVE
    INDEX 01 00:00:00
  TRACK 12 AUDIO
    TITLE "Where The Lazy River Goes By"
    PERFORMER "Teddy Wilson And His Orchestra"
    INDEX 00 03:26:20
FILE "12. Where The Lazy River Goes By.flac" WAVE
    INDEX 01 00:00:00
  TRACK 13 AUDIO
    TITLE "Tea For Two"
    PERFORMER "Teddy Wilson And His Orchestra"
    INDEX 00 02:51:45
FILE "13. Tea For Two.flac" WAVE
    INDEX 01 00:00:00
  TRACK 14 AUDIO
    TITLE "I'll See You In My Dreams"
    PERFORMER "Teddy Wilson And His Orchestra"
    INDEX 00 03:12:25
FILE "14. I'll See You In My Dreams.flac" WAVE
    INDEX 01 00:00:00
  TRACK 15 AUDIO
    TITLE "He Ain't Got Rhythm"
    PERFORMER "Teddy Wilson And His Orchestra"
    INDEX 00 02:38:70
FILE "15. He Ain't Got Rhythm.flac" WAVE
    INDEX 01 00:00:00
  TRACK 16 AUDIO
    TITLE "This Year's Kisses"
    PERFORMER "Teddy Wilson And His Orchestra"
    INDEX 00 02:50:20
FILE "16. This Year's Kisses.flac" WAVE
    INDEX 01 00:00:00
  TRACK 17 AUDIO
    TITLE "Why Was I Born?"
    PERFORMER "Teddy Wilson And His Orchestra"
    INDEX 00 03:09:27
FILE "17. Why Was I Born.flac" WAVE
    INDEX 01 00:00:00
  TRACK 18 AUDIO
    TITLE "I Must Have That Man"
    PERFORMER "Teddy Wilson And His Orchestra"
    INDEX 00 02:49:68
FILE "18. I Must Have That Man.flac" WAVE
    INDEX 01 00:00:00
  TRACK 19 AUDIO
    TITLE "The Mood That I'm In"
    PERFORMER "Teddy Wilson And His Orchestra"
    INDEX 00 02:54:55
FILE "19. The Mood That I'm In.flac" WAVE
    INDEX 01 00:00:00
  TRACK 20 AUDIO
    TITLE "You Showed Me The Way"
    PERFORMER "Teddy Wilson And His Orchestra"
    INDEX 00 02:59:60
FILE "20. You Showed Me The Way.flac" WAVE
    INDEX 01 00:00:00
  TRACK 21 AUDIO
    TITLE "Sentimental And Melancholy"
    PERFORMER "Teddy Wilson And His Orchestra"
    INDEX 00 02:59:25
FILE "21. Sentimental And Melancholy.flac" WAVE
    INDEX 01 00:00:00
  TRACK 22 AUDIO
    TITLE "(This Is) My Last Affair"
    PERFORMER "Teddy Wilson And His Orchestra"
    INDEX 00 02:37:60
FILE "22. (This Is) My Last Affair.flac" WAVE
    INDEX 01 00:00:00
  TRACK 23 AUDIO
    TITLE "Carelessly"
    PERFORMER "Teddy Wilson And His Orchestra"
    INDEX 00 03:08:50
FILE "23. Carelessly.flac" WAVE
    INDEX 01 00:00:00
No seeders - write personal message to M0p94ok. Any questions - support@pro-jazz.com.
Нет сидеров - пишите в личку M0p94ok. Есть вопросы - support@pro-jazz.com
05:11
170
Нет комментариев. Ваш будет первым!