Поиск

1990 Pheeroan akLaff - Sonogram

1990 Pheeroan akLaff - Sonogram
Страна-производитель диска (релиза):
USA
Дата записи диска:
август 1989
Дата издания диска:
1990
Номер по каталогу:
MU1004
Носитель:
CD
Битрейт аудио:
lossless
Аудиокодек:
APE (*.ape)
Тип рипа:
image+.cue
Время звучания:
00:38:54
Наличие сканов:
  • да
Релизёр (источник):
dreadbull
Треклист:

01. Bit Her [11:32]
02. Serious [10:13]
03. Alligator and Kangaroo [04:12]
04. Tout de Suite [05:29]
05. Sonogram [03:46]
06. Juggler [03:39]

Состав:
  • Pheeroan akLaff — drums, cymbals;
  • John Stubblefield — tenor sax;
  • Carlos Ward — alto sax;
  • Sonny Sharrock — guitar;
  • Kenny Davis — electric & acoustic bass
Лог создания рипа
<spoiler title="Лог создания рипа"><pre>
EAC extraction logfile from 28. November 2008, 13:02 for CD
Pheeroan akLaff / Sonogram
Used drive  : PLEXTOR DVDR   PX-750A   Adapter: 0  ID: 1
Read mode   : Secure with NO C2, accurate stream, disable cache
Read offset correction : 102
Overread into Lead-In and Lead-Out : No
Used output format : Internal WAV Routines
                     44.100 Hz; 16 Bit; Stereo
Other options      :
    Fill up missing offset samples with silence : Yes
    Delete leading and trailing silent blocks : No
    Installed external ASPI interface
Range status and errors
Selected range
     Filename E:\Donkey Files\Pheeroan akLaff - Sonogram (1990, MU Works) [eac-ape-scans]\CDImage.wav
     Peak level 95.1 %
     Range quality 100.0 %
     CRC C15FA47A
     Copy OK
No errors occured
End of status report</pre></spoiler>
Содержание индексной карты (.CUE)
<spoiler title="Содержание индексной карты (.CUE)"><pre>CATALOG 0000000000000
PERFORMER "Pheeroan akLaff"
TITLE "Sonogram"
FILE "CDImage.wav" WAVE
  TRACK 01 AUDIO
    TITLE "Bit Her"
    PERFORMER "Pheeroan akLaff"
    INDEX 00 00:00:00
    INDEX 01 00:00:32
  TRACK 02 AUDIO
    TITLE "Serious"
    PERFORMER "Pheeroan akLaff"
    INDEX 00 11:30:62
    INDEX 01 11:33:27
  TRACK 03 AUDIO
    TITLE "Alligator and Kangaroo"
    PERFORMER "Pheeroan akLaff"
    INDEX 00 21:43:70
    INDEX 01 21:46:30
  TRACK 04 AUDIO
    TITLE "Tout de Suite"
    PERFORMER "Pheeroan akLaff"
    INDEX 00 25:57:30
    INDEX 01 25:59:00
  TRACK 05 AUDIO
    TITLE "Sonogram"
    PERFORMER "Pheeroan akLaff"
    INDEX 00 31:27:05
    INDEX 01 31:28:30
  TRACK 06 AUDIO
    TITLE "Juggler"
    PERFORMER "Pheeroan akLaff"
    INDEX 00 35:13:65
    INDEX 01 35:14:35

</pre></spoiler>
Приватный:
Нет (DHT включён)
Размер:
267.10 Мб (280,076,375 байт) » файлов: 9
Участники:
0 раздают, 0 качают (0 участников всего)
Внешние участники:
2 раздают, 1 качают (3 участников всего) [ Обновить ]
07:40
124
RSS
Нет комментариев. Ваш будет первым!