Поиск

1990 Louis Armstrong And His Orchestra - 1938-1939 {The Chronological Classics CC523} [CD]

1990 Louis Armstrong And His Orchestra - 1938-1939 {The Chronological Classics CC523} [CD]
Издатель (лейбл):
Номер по каталогу:
CC523
Доп. инфо:

Носитель: CD
Страна-производитель диска: France
Год издания: 1990
Издатель (лейбл): Classics
Номер по каталогу: 523
Аудиокодек: FLAC (*.flac)
Тип рипа: tracks+.cue
Битрейт аудио: lossless
Продолжительность: 69:09
Источник (релизер): What.cd (xmaximax)
Наличие сканов в содержимом раздачи: да

Лог создания рипа
Exact Audio Copy V0.99 prebeta 5 from 4. May 2009
EAC extraction logfile from 19. August 2011, 22:36
Louis Armstrong / 1938-1939
Used drive  : Optiarc DVD RW AD-7260S   Adapter: 3  ID: 0
Read mode               : Secure
Utilize accurate stream : Yes
Defeat audio cache      : Yes
Make use of C2 pointers : No
Read offset correction                      : 48
Overread into Lead-In and Lead-Out          : No
Fill up missing offset samples with silence : Yes
Delete leading and trailing silent blocks   : No
Null samples used in CRC calculations       : Yes
Used interface                              : Native Win32 interface for Win NT & 2000
Gap handling                                : Appended to previous track
Used output format              : User Defined Encoder
Selected bitrate                : 320 kBit/s
Quality                         : High
Add ID3 tag                     : No
Command line compressor         : C:\Program Files (x86)\FLAC\flac.exe
Additional command line options : -V -8 -T "artist=%a" -T "title=%t" -T "album=%g" -T "date=%y" -T "tracknumber=%n" -T "genre=%m" %s
TOC of the extracted CD
     Track |   Start  |  Length  | Start sector | End sector
    ---------------------------------------------------------
        1  |  0:00.33 |  2:27.12 |        33    |    11069
        2  |  2:27.45 |  2:36.43 |     11070    |    22812
        3  |  5:04.13 |  2:32.15 |     22813    |    34227
        4  |  7:36.28 |  2:31.15 |     34228    |    45567
        5  | 10:07.43 |  2:59.45 |     45568    |    59037
        6  | 13:07.13 |  3:11.20 |     59038    |    73382
        7  | 16:18.33 |  2:42.47 |     73383    |    85579
        8  | 19:01.05 |  2:31.60 |     85580    |    96964
        9  | 21:32.65 |  2:48.70 |     96965    |   109634
       10  | 24:21.60 |  3:11.73 |    109635    |   124032
       11  | 27:33.58 |  2:49.57 |    124033    |   136764
       12  | 30:23.40 |  2:48.20 |    136765    |   149384
       13  | 33:11.60 |  2:55.18 |    149385    |   162527
       14  | 36:07.03 |  2:56.42 |    162528    |   175769
       15  | 39:03.45 |  2:58.40 |    175770    |   189159
       16  | 42:02.10 |  4:19.53 |    189160    |   208637
       17  | 46:21.63 |  4:22.22 |    208638    |   228309
       18  | 50:44.10 |  2:40.30 |    228310    |   240339
       19  | 53:24.40 |  3:07.03 |    240340    |   254367
       20  | 56:31.43 |  3:17.40 |    254368    |   269182
       21  | 59:49.08 |  3:16.40 |    269183    |   283922
       22  | 63:05.48 |  3:06.27 |    283923    |   297899
       23  | 66:12.00 |  2:57.23 |    297900    |   311197
Track  1
     Filename E:\Rips\01 - On the sentimental side.wav
     Pre-gap length  0:00:02.44
     Peak level 87.8 %
     Track quality 100.0 %
     Test CRC ABD2AEB0
     Copy CRC ABD2AEB0
     Accurately ripped (confidence 2)  [3A2B188F]
     Copy OK
Track  2
     Filename E:\Rips\02 - It's wonderful.wav
     Pre-gap length  0:00:01.96
     Peak level 79.1 %
     Track quality 100.0 %
     Test CRC 1409CEAA
     Copy CRC 1409CEAA
     Accurately ripped (confidence 2)  [2874A64A]
     Copy OK
Track  3
     Filename E:\Rips\03 - Something tells me.wav
     Pre-gap length  0:00:02.37
     Peak level 80.7 %
     Track quality 100.0 %
     Test CRC 82B289BD
     Copy CRC 82B289BD
     Accurately ripped (confidence 2)  [79A2A728]
     Copy OK
Track  4
     Filename E:\Rips\04 - Love walked in.wav
     Pre-gap length  0:00:01.73
     Peak level 77.6 %
     Track quality 100.0 %
     Test CRC C42834E8
     Copy CRC C42834E8
     Accurately ripped (confidence 2)  [BAB8259A]
     Copy OK
Track  5
     Filename E:\Rips\05 - The flat foot floogie.wav
     Pre-gap length  0:00:02.20
     Peak level 79.1 %
     Track quality 100.0 %
     Test CRC 0C1D615C
     Copy CRC 0C1D615C
     Accurately ripped (confidence 2)  [7283AB20]
     Copy OK
Track  6
     Filename E:\Rips\06 - The song is ended.wav
     Pre-gap length  0:00:01.90
     Peak level 86.6 %
     Track quality 99.9 %
     Test CRC 11CF96AB
     Copy CRC 11CF96AB
     Accurately ripped (confidence 2)  [F351C37B]
     Copy OK
Track  7
     Filename E:\Rips\07 - My walking stick.wav
     Pre-gap length  0:00:02.17
     Peak level 83.8 %
     Track quality 100.0 %
     Test CRC 8D26CBE4
     Copy CRC 8D26CBE4
     Accurately ripped (confidence 2)  [79C21AB4]
     Copy OK
Track  8
     Filename E:\Rips\08 - Shadrack.wav
     Pre-gap length  0:00:02.26
     Peak level 59.5 %
     Track quality 100.0 %
     Test CRC 11258FFD
     Copy CRC 11258FFD
     Accurately ripped (confidence 2)  [5A3A4FF8]
     Copy OK
Track  9
     Filename E:\Rips\09 - Going to shout all over God's heaven.wav
     Pre-gap length  0:00:02.62
     Peak level 83.6 %
     Track quality 100.0 %
     Test CRC FBF402D8
     Copy CRC FBF402D8
     Accurately ripped (confidence 2)  [36C4DDF4]
     Copy OK
Track 10
     Filename E:\Rips\10 - Nobody knows the trouble I've seen.wav
     Pre-gap length  0:00:02.00
     Peak level 51.6 %
     Track quality 100.0 %
     Test CRC 562EA8B1
     Copy CRC 562EA8B1
     Accurately ripped (confidence 2)  [41129869]
     Copy OK
Track 11
     Filename E:\Rips\11 - Jonah and the wale.wav
     Pre-gap length  0:00:02.26
     Peak level 61.9 %
     Track quality 100.0 %
     Test CRC 37509917
     Copy CRC 37509917
     Accurately ripped (confidence 2)  [3078BF47]
     Copy OK
Track 12
     Filename E:\Rips\12 - Naturally.wav
     Pre-gap length  0:00:03.02
     Peak level 54.0 %
     Track quality 100.0 %
     Test CRC B23EAEB0
     Copy CRC B23EAEB0
     Accurately ripped (confidence 2)  [D8D35311]
     Copy OK
Track 13
     Filename E:\Rips\13 - I've got a pocketful of dreams.wav
     Pre-gap length  0:00:02.06
     Peak level 71.2 %
     Track quality 100.0 %
     Test CRC 099F7185
     Copy CRC 099F7185
     Accurately ripped (confidence 2)  [AA148714]
     Copy OK
Track 14
     Filename E:\Rips\14 - I can't give you anything but love.wav
     Pre-gap length  0:00:02.06
     Peak level 70.9 %
     Track quality 100.0 %
     Test CRC 1770E287
     Copy CRC 1770E287
     Accurately ripped (confidence 2)  [C7FB8EEA]
     Copy OK
Track 15
     Filename E:\Rips\15 - Ain't misbehavin'.wav
     Pre-gap length  0:00:02.16
     Peak level 65.7 %
     Track quality 100.0 %
     Test CRC D344EADA
     Copy CRC D344EADA
     Accurately ripped (confidence 2)  [E841770E]
     Copy OK
Track 16
     Filename E:\Rips\16 - Elder Eatmore's sermon on throwing stones.wav
     Pre-gap length  0:00:02.09
     Peak level 72.8 %
     Track quality 100.0 %
     Test CRC E216B092
     Copy CRC E216B092
     Accurately ripped (confidence 2)  [D19144D1]
     Copy OK
Track 17
     Filename E:\Rips\17 - Elder Eatmore's sermon on generosity.wav
     Pre-gap length  0:00:03.00
     Peak level 72.8 %
     Track quality 100.0 %
     Test CRC F7B88E9B
     Copy CRC F7B88E9B
     Accurately ripped (confidence 2)  [6C90D1B5]
     Copy OK
Track 18
     Filename E:\Rips\18 - Jeepers creepers.wav
     Pre-gap length  0:00:02.02
     Peak level 66.9 %
     Track quality 99.9 %
     Test CRC CE176608
     Copy CRC CE176608
     Accurately ripped (confidence 2)  [20CD3F81]
     Copy OK
Track 19
     Filename E:\Rips\19 - What is that thing called swing .wav
     Pre-gap length  0:00:02.02
     Peak level 69.4 %
     Track quality 100.0 %
     Test CRC 0275B7F0
     Copy CRC 0275B7F0
     Accurately ripped (confidence 2)  [E42E75D6]
     Copy OK
Track 20
     Filename E:\Rips\20 - Rockin' chair.wav
     Pre-gap length  0:00:02.00
     Peak level 52.4 %
     Track quality 100.0 %
     Test CRC 7CD4B378
     Copy CRC 7CD4B378
     Accurately ripped (confidence 2)  [3CEB7BE0]
     Copy OK
Track 21
     Filename E:\Rips\21 - Lazybones.wav
     Pre-gap length  0:00:02.26
     Peak level 50.1 %
     Track quality 100.0 %
     Test CRC FE4D72A6
     Copy CRC FE4D72A6
     Accurately ripped (confidence 2)  [271C82FA]
     Copy OK
Track 22
     Filename E:\Rips\22 - Hear me talkin' to ya.wav
     Pre-gap length  0:00:02.90
     Peak level 83.0 %
     Track quality 100.0 %
     Test CRC 7DB17EE6
     Copy CRC 7DB17EE6
     Accurately ripped (confidence 2)  [92434BA8]
     Copy OK
Track 23
     Filename E:\Rips\23 - Save it, pretty mama.wav
     Pre-gap length  0:00:01.96
     Peak level 69.5 %
     Track quality 99.9 %
     Test CRC F44A7685
     Copy CRC F44A7685
     Accurately ripped (confidence 2)  [17308CBC]
     Copy OK
All tracks accurately ripped
No errors occurred
End of status report
Содержание индексной карты (.CUE)
REM GENRE Jazz
REM DATE 1990
REM DISCID 6E103517
REM COMMENT "ExactAudioCopy V0.99pb5"
PERFORMER "Louis Armstrong And His Orchestra"
TITLE "1938-1939 {Chronological Classics, 523}"
FILE "01. On The Sentimental Side.flac" WAVE
  TRACK 01 AUDIO
    TITLE "On The Sentimental Side"
    PERFORMER "Louis Armstrong And His Orchestra"
    PREGAP 00:00:33
    INDEX 01 00:00:00
  TRACK 02 AUDIO
    TITLE "It's Wonderful"
    PERFORMER "Louis Armstrong And His Orchestra"
    INDEX 00 02:25:15
FILE "02. It's Wonderful.flac" WAVE
    INDEX 01 00:00:00
  TRACK 03 AUDIO
    TITLE "Something Tells Me"
    PERFORMER "Louis Armstrong And His Orchestra"
    INDEX 00 02:34:15
FILE "03. Something Tells Me.flac" WAVE
    INDEX 01 00:00:00
  TRACK 04 AUDIO
    TITLE "Love Walked In"
    PERFORMER "Louis Armstrong And His Orchestra"
    INDEX 00 02:30:35
FILE "04. Love Walked In.flac" WAVE
    INDEX 01 00:00:00
  TRACK 05 AUDIO
    TITLE "The Flat Foot Floogie"
    PERFORMER "Louis Armstrong And His Orchestra"
    INDEX 00 02:29:00
FILE "05. The Flat Foot Floogie.flac" WAVE
    INDEX 01 00:00:00
  TRACK 06 AUDIO
    TITLE "The Song Is Ended"
    PERFORMER "Louis Armstrong And His Orchestra"
    INDEX 00 02:57:52
FILE "06. The Song Is Ended.flac" WAVE
    INDEX 01 00:00:00
  TRACK 07 AUDIO
    TITLE "My Walking Stick"
    PERFORMER "Louis Armstrong And His Orchestra"
    INDEX 00 03:09:07
FILE "07. My Walking Stick.flac" WAVE
    INDEX 01 00:00:00
  TRACK 08 AUDIO
    TITLE "Shadrack"
    PERFORMER "Louis Armstrong And His Orchestra"
    INDEX 00 02:40:27
FILE "08. Shadrack.flac" WAVE
    INDEX 01 00:00:00
  TRACK 09 AUDIO
    TITLE "Going To Shout All Over God's Heaven"
    PERFORMER "Louis Armstrong And His Orchestra"
    INDEX 00 02:29:13
FILE "09. Going To Shout All Over God's Heaven.flac" WAVE
    INDEX 01 00:00:00
  TRACK 10 AUDIO
    TITLE "Nobody Knows The Trouble I've Seen"
    PERFORMER "Louis Armstrong And His Orchestra"
    INDEX 00 02:46:70
FILE "10. Nobody Knows The Trouble I've Seen.flac" WAVE
    INDEX 01 00:00:00
  TRACK 11 AUDIO
    TITLE "Jonah And The Wale"
    PERFORMER "Louis Armstrong And His Orchestra"
    INDEX 00 03:09:53
FILE "11. Jonah And The Wale.flac" WAVE
    INDEX 01 00:00:00
  TRACK 12 AUDIO
    TITLE "Naturally"
    PERFORMER "Louis Armstrong And His Orchestra"
    INDEX 00 02:46:55
FILE "12. Naturally.flac" WAVE
    INDEX 01 00:00:00
  TRACK 13 AUDIO
    TITLE "I've Got A Pocketful Of Dreams"
    PERFORMER "Louis Armstrong And His Orchestra"
    INDEX 00 02:46:15
FILE "13. I've Got A Pocketful Of Dreams.flac" WAVE
    INDEX 01 00:00:00
  TRACK 14 AUDIO
    TITLE "I Can't Give You Anything But Love"
    PERFORMER "Louis Armstrong And His Orchestra"
    INDEX 00 02:53:13
FILE "14. I Can't Give You Anything But Love.flac" WAVE
    INDEX 01 00:00:00
  TRACK 15 AUDIO
    TITLE "Ain't Misbehavin'"
    PERFORMER "Louis Armstrong And His Orchestra"
    INDEX 00 02:54:30
FILE "15. Ain't Misbehavin'.flac" WAVE
    INDEX 01 00:00:00
  TRACK 16 AUDIO
    TITLE "Elder Eatmore's Sermon On Throwing Stones"
    PERFORMER "Louis Armstrong And His Orchestra"
    INDEX 00 02:56:33
FILE "16. Elder Eatmore's Sermon On Throwing Stones.flac" WAVE
    INDEX 01 00:00:00
  TRACK 17 AUDIO
    TITLE "Elder Eatmore's Sermon On Generosity"
    PERFORMER "Louis Armstrong And His Orchestra"
    INDEX 00 04:16:53
FILE "17. Elder Eatmore's Sermon On Generosity.flac" WAVE
    INDEX 01 00:00:00
  TRACK 18 AUDIO
    TITLE "Jeepers Creepers"
    PERFORMER "Louis Armstrong And His Orchestra"
    INDEX 00 04:20:20
FILE "18. Jeepers Creepers.flac" WAVE
    INDEX 01 00:00:00
  TRACK 19 AUDIO
    TITLE "What Is That Thing Called Swing?"
    PERFORMER "Louis Armstrong And His Orchestra"
    INDEX 00 02:38:28
FILE "19. What Is That Thing Called Swing.flac" WAVE
    INDEX 01 00:00:00
  TRACK 20 AUDIO
    TITLE "Rockin' Chair"
    PERFORMER "Louis Armstrong And His Orchestra"
    INDEX 00 03:05:03
FILE "20. Rockin' Chair.flac" WAVE
    INDEX 01 00:00:00
  TRACK 21 AUDIO
    TITLE "Lazybones"
    PERFORMER "Louis Armstrong And His Orchestra"
    INDEX 00 03:15:20
FILE "21. Lazybones.flac" WAVE
    INDEX 01 00:00:00
  TRACK 22 AUDIO
    TITLE "Hear Me Talkin' To Ya"
    PERFORMER "Louis Armstrong And His Orchestra"
    INDEX 00 03:13:47
FILE "22. Hear Me Talkin' To Ya.flac" WAVE
    INDEX 01 00:00:00
  TRACK 23 AUDIO
    TITLE "Save It, Pretty Mama"
    PERFORMER "Louis Armstrong And His Orchestra"
    INDEX 00 03:04:30
FILE "23. Save It, Pretty Mama.flac" WAVE
    INDEX 01 00:00:00
No seeders - write personal message to M0p94ok. Any questions - support@pro-jazz.com.
Нет сидеров - пишите в личку M0p94ok. Есть вопросы - support@pro-jazz.com
14:43
195
Нет комментариев. Ваш будет первым!