Поиск

1990 Louis Armstrong And His Orchestra - 1932-1933 {The Chronological Classics CC529} [CD]

1990 Louis Armstrong And His Orchestra - 1932-1933 {The Chronological Classics CC529} [CD]
Издатель (лейбл):
Номер по каталогу:
CC 529
Доп. инфо:

Носитель: CD
Страна-производитель диска: France
Год издания: 1990
Издатель (лейбл): Classics
Номер по каталогу: 529
Аудиокодек: FLAC (*.flac)
Тип рипа: tracks+.cue
Битрейт аудио: lossless
Продолжительность: 74:15
Источник (релизер): What.cd (xmaximax)
Наличие сканов в содержимом раздачи: да

Лог создания рипа
Exact Audio Copy V0.99 prebeta 5 from 4. May 2009
EAC extraction logfile from 19. August 2011, 20:50
LOUIS ARMSTRONG / LOUIS ARMSTRONG 1932-1933
Used drive  : Optiarc DVD RW AD-7260S   Adapter: 3  ID: 0
Read mode               : Secure
Utilize accurate stream : Yes
Defeat audio cache      : Yes
Make use of C2 pointers : No
Read offset correction                      : 48
Overread into Lead-In and Lead-Out          : No
Fill up missing offset samples with silence : Yes
Delete leading and trailing silent blocks   : No
Null samples used in CRC calculations       : Yes
Used interface                              : Native Win32 interface for Win NT & 2000
Gap handling                                : Appended to previous track
Used output format              : User Defined Encoder
Selected bitrate                : 320 kBit/s
Quality                         : High
Add ID3 tag                     : No
Command line compressor         : C:\Program Files (x86)\FLAC\flac.exe
Additional command line options : -V -8 -T "artist=%a" -T "title=%t" -T "album=%g" -T "date=%y" -T "tracknumber=%n" -T "genre=%m" %s
TOC of the extracted CD
     Track |   Start  |  Length  | Start sector | End sector
    ---------------------------------------------------------
        1  |  0:00.33 |  4:23.45 |        33    |    19802
        2  |  4:24.03 |  3:17.55 |     19803    |    34632
        3  |  7:41.58 |  3:03.45 |     34633    |    48402
        4  | 10:45.28 |  3:11.17 |     48403    |    62744
        5  | 13:56.45 |  3:02.70 |     62745    |    76464
        6  | 16:59.40 |  3:26.55 |     76465    |    91969
        7  | 20:26.20 |  2:41.35 |     91970    |   104079
        8  | 23:07.55 |  3:03.73 |    104080    |   117877
        9  | 26:11.53 |  3:28.17 |    117878    |   133494
       10  | 29:39.70 |  2:38.53 |    133495    |   145397
       11  | 32:18.48 |  3:12.02 |    145398    |   159799
       12  | 35:30.50 |  2:37.50 |    159800    |   171624
       13  | 38:08.25 |  2:40.10 |    171625    |   183634
       14  | 40:48.35 |  3:01.63 |    183635    |   197272
       15  | 43:50.23 |  3:06.57 |    197273    |   211279
       16  | 46:57.05 |  3:28.55 |    211280    |   226934
       17  | 50:25.60 |  3:17.53 |    226935    |   241762
       18  | 53:43.38 |  2:57.12 |    241763    |   255049
       19  | 56:40.50 |  3:20.48 |    255050    |   270097
       20  | 60:01.23 |  2:41.12 |    270098    |   282184
       21  | 62:42.35 |  2:47.38 |    282185    |   294747
       22  | 65:29.73 |  3:07.57 |    294748    |   308829
       23  | 68:37.55 |  2:42.70 |    308830    |   321049
       24  | 71:20.50 |  2:54.58 |    321050    |   334157
Track  1
     Filename E:\Rips\01 - MEDLEY- YOU RASCAL YOU,WHEN IT'S SLEEPY TIME DOWN SOUTH, NOBODYS SWEETHEART.wav
     Pre-gap length  0:00:02.44
     Peak level 81.4 %
     Track quality 100.0 %
     Test CRC 27184009
     Copy CRC 27184009
     Accurately ripped (confidence 2)  [6580D519]
     Copy OK
Track  2
     Filename E:\Rips\02 - I'VE GOT THE WORLD ON A STRING.wav
     Pre-gap length  0:00:02.93
     Peak level 99.4 %
     Track quality 100.0 %
     Test CRC 2353649B
     Copy CRC 2353649B
     Accurately ripped (confidence 2)  [A8AD2EBD]
     Copy OK
Track  3
     Filename E:\Rips\03 - I GOTTA RIGHT TO SONG THE BLUES.wav
     Pre-gap length  0:00:02.37
     Peak level 95.9 %
     Track quality 99.9 %
     Test CRC 9928D040
     Copy CRC 9928D040
     Accurately ripped (confidence 2)  [92BE598F]
     Copy OK
Track  4
     Filename E:\Rips\04 - HUSTLIN' AND BUSTLIN' FOR BABY.wav
     Pre-gap length  0:00:01.97
     Peak level 88.1 %
     Track quality 100.0 %
     Test CRC 0D5EC538
     Copy CRC 0D5EC538
     Accurately ripped (confidence 2)  [EB015CA1]
     Copy OK
Track  5
     Filename E:\Rips\05 - SITTIN' IN THE DARK.wav
     Pre-gap length  0:00:03.46
     Peak level 75.1 %
     Track quality 99.9 %
     Test CRC 397E9973
     Copy CRC 397E9973
     Accurately ripped (confidence 2)  [F580F88F]
     Copy OK
Track  6
     Filename E:\Rips\06 - HIGH SOCIETY.wav
     Pre-gap length  0:00:03.69
     Peak level 90.1 %
     Track quality 100.0 %
     Test CRC 1EBCA52A
     Copy CRC 1EBCA52A
     Accurately ripped (confidence 2)  [512DA380]
     Copy OK
Track  7
     Filename E:\Rips\07 - HE'S A SON OF THE SOUTH.wav
     Pre-gap length  0:00:01.80
     Peak level 72.9 %
     Track quality 100.0 %
     Test CRC 41032715
     Copy CRC 41032715
     Accurately ripped (confidence 2)  [E7C28524]
     Copy OK
Track  8
     Filename E:\Rips\08 - SOME SWEET DAY.wav
     Pre-gap length  0:00:03.09
     Peak level 94.8 %
     Track quality 99.9 %
     Test CRC F3F1DC16
     Copy CRC F3F1DC16
     Accurately ripped (confidence 2)  [4E8C08F4]
     Copy OK
Track  9
     Filename E:\Rips\09 - BASIN STREET BLUES.wav
     Pre-gap length  0:00:02.84
     Peak level 93.3 %
     Track quality 99.9 %
     Test CRC B8F6503B
     Copy CRC B8F6503B
     Accurately ripped (confidence 2)  [913623EA]
     Copy OK
Track 10
     Filename E:\Rips\10 - HONEY, DO!.wav
     Pre-gap length  0:00:02.82
     Peak level 83.9 %
     Track quality 99.9 %
     Test CRC AB346020
     Copy CRC AB346020
     Accurately ripped (confidence 2)  [297E3EB9]
     Copy OK
Track 11
     Filename E:\Rips\11 - SNOWBALL.wav
     Pre-gap length  0:00:02.04
     Peak level 74.3 %
     Track quality 100.0 %
     Test CRC 80C5CEA6
     Copy CRC 80C5CEA6
     Accurately ripped (confidence 2)  [640A51CF]
     Copy OK
Track 12
     Filename E:\Rips\12 - MAHOGANY HALL STOMP.wav
     Pre-gap length  0:00:02.22
     Peak level 83.8 %
     Track quality 100.0 %
     Test CRC 238191E1
     Copy CRC 238191E1
     Accurately ripped (confidence 2)  [B080F34D]
     Copy OK
Track 13
     Filename E:\Rips\13 - SWING, YOU CATS.wav
     Pre-gap length  0:00:02.62
     Peak level 83.3 %
     Track quality 100.0 %
     Test CRC EB407298
     Copy CRC EB407298
     Accurately ripped (confidence 2)  [43966E93]
     Copy OK
Track 14
     Filename E:\Rips\14 - HONEY, DON'T YOU LOVE ME ANYMORE .wav
     Pre-gap length  0:00:02.69
     Peak level 75.0 %
     Track quality 100.0 %
     Test CRC 6461B5F4
     Copy CRC 6461B5F4
     Accurately ripped (confidence 2)  [D9E7FF9C]
     Copy OK
Track 15
     Filename E:\Rips\15 - MISSISSIPPI BASIN.wav
     Pre-gap length  0:00:04.13
     Peak level 70.3 %
     Track quality 100.0 %
     Test CRC E125526D
     Copy CRC E125526D
     Accurately ripped (confidence 2)  [24EDF4E5]
     Copy OK
Track 16
     Filename E:\Rips\16 - LAUGHIN' LOUIE.wav
     Pre-gap length  0:00:03.26
     Peak level 93.7 %
     Track quality 100.0 %
     Test CRC 178192FE
     Copy CRC 178192FE
     Accurately ripped (confidence 2)  [2514DB5D]
     Copy OK
Track 17
     Filename E:\Rips\17 - TOMORROW NIGHT.wav
     Pre-gap length  0:00:03.02
     Peak level 83.6 %
     Track quality 100.0 %
     Test CRC 9B99A697
     Copy CRC 9B99A697
     Accurately ripped (confidence 2)  [9CC894C0]
     Copy OK
Track 18
     Filename E:\Rips\18 - DUSKY STEVEDORE.wav
     Pre-gap length  0:00:04.50
     Peak level 82.5 %
     Track quality 100.0 %
     Test CRC B55172C5
     Copy CRC B55172C5
     Accurately ripped (confidence 2)  [3B177AFF]
     Copy OK
Track 19
     Filename E:\Rips\19 - THERE'S A CABIN IN THE PINES.wav
     Pre-gap length  0:00:02.60
     Peak level 86.6 %
     Track quality 100.0 %
     Test CRC 4A82BF55
     Copy CRC 4A82BF55
     Accurately ripped (confidence 2)  [ED46F090]
     Copy OK
Track 20
     Filename E:\Rips\20 - MIGHTY RIVER.wav
     Pre-gap length  0:00:03.60
     Peak level 87.3 %
     Track quality 100.0 %
     Test CRC BE114732
     Copy CRC BE114732
     Accurately ripped (confidence 2)  [A9850DE8]
     Copy OK
Track 21
     Filename E:\Rips\21 - SWEET SUE, JUST YOU.wav
     Pre-gap length  0:00:03.69
     Peak level 86.0 %
     Track quality 100.0 %
     Test CRC F5E1F5D3
     Copy CRC F5E1F5D3
     Accurately ripped (confidence 2)  [B7E68C9C]
     Copy OK
Track 22
     Filename E:\Rips\22 - I WONDER WHO.wav
     Pre-gap length  0:00:02.37
     Peak level 70.4 %
     Track quality 100.0 %
     Test CRC 53C57F20
     Copy CRC 53C57F20
     Accurately ripped (confidence 2)  [4D2F28CA]
     Copy OK
Track 23
     Filename E:\Rips\23 - ST. LOUIS BLUES.wav
     Pre-gap length  0:00:02.73
     Peak level 77.9 %
     Track quality 100.0 %
     Test CRC 2133DCB0
     Copy CRC 2133DCB0
     Accurately ripped (confidence 2)  [BE4AC858]
     Copy OK
Track 24
     Filename E:\Rips\24 - DON'T PLAY ME CHEAP.wav
     Pre-gap length  0:00:02.82
     Peak level 88.7 %
     Track quality 100.0 %
     Test CRC B2448C40
     Copy CRC B2448C40
     Accurately ripped (confidence 2)  [2663DC5D]
     Copy OK
All tracks accurately ripped
No errors occurred
End of status report
Содержание индексной карты (.CUE)
REM GENRE Jazz
REM DATE 1990
REM DISCID 48116718
REM COMMENT "ExactAudioCopy v0.99pb5"
PERFORMER "Louis Armstrong And His Orchestra"
TITLE "1932-1933 {Chronological Classics, 529}"
FILE "01. Medley Of Armstrong Hits (Part 1).flac" WAVE
  TRACK 01 AUDIO
    TITLE "Medley Of Armstrong Hits (Part 1): You Rascal You / When It's Sleepy Time Down South / Nobody's Sweetheart"
    PERFORMER "Louis Armstrong And His Orchestra"
    PREGAP 00:00:33
    INDEX 01 00:00:00
  TRACK 02 AUDIO
    TITLE "I've Got The World On A String"
    PERFORMER "Louis Armstrong And His Orchestra"
    INDEX 00 04:20:50
FILE "02. I've Got The World On A String.flac" WAVE
    INDEX 01 00:00:00
  TRACK 03 AUDIO
    TITLE "I Gotta Right To Sing The Blues"
    PERFORMER "Louis Armstrong And His Orchestra"
    INDEX 00 03:15:27
FILE "03. I Gotta Right To Sing The Blues.flac" WAVE
    INDEX 01 00:00:00
  TRACK 04 AUDIO
    TITLE "Hustlin' And Bustlin' For Baby"
    PERFORMER "Louis Armstrong And His Orchestra"
    INDEX 00 03:01:47
FILE "04. Hustlin' And Bustlin' For Baby.flac" WAVE
    INDEX 01 00:00:00
  TRACK 05 AUDIO
    TITLE "Sittin' In The Dark"
    PERFORMER "Louis Armstrong And His Orchestra"
    INDEX 00 03:07:57
FILE "05. Sittin' In The Dark.flac" WAVE
    INDEX 01 00:00:00
  TRACK 06 AUDIO
    TITLE "High Society"
    PERFORMER "Louis Armstrong And His Orchestra"
    INDEX 00 02:59:18
FILE "06. High Society.flac" WAVE
    INDEX 01 00:00:00
  TRACK 07 AUDIO
    TITLE "He's A Son Of The South"
    PERFORMER "Louis Armstrong And His Orchestra"
    INDEX 00 03:24:70
FILE "07. He's A Son Of The South.flac" WAVE
    INDEX 01 00:00:00
  TRACK 08 AUDIO
    TITLE "Some Sweet Day"
    PERFORMER "Louis Armstrong And His Orchestra"
    INDEX 00 02:38:28
FILE "08. Some Sweet Day.flac" WAVE
    INDEX 01 00:00:00
  TRACK 09 AUDIO
    TITLE "Basin Street Blues"
    PERFORMER "Louis Armstrong And His Orchestra"
    INDEX 00 03:01:10
FILE "09. Basin Street Blues.flac" WAVE
    INDEX 01 00:00:00
  TRACK 10 AUDIO
    TITLE "Honey, Do!"
    PERFORMER "Louis Armstrong And His Orchestra"
    INDEX 00 03:25:30
FILE "10. Honey, Do!.flac" WAVE
    INDEX 01 00:00:00
  TRACK 11 AUDIO
    TITLE "Snowball"
    PERFORMER "Louis Armstrong And His Orchestra"
    INDEX 00 02:36:50
FILE "11. Snowball.flac" WAVE
    INDEX 01 00:00:00
  TRACK 12 AUDIO
    TITLE "Mahogany Hall Stomp"
    PERFORMER "Louis Armstrong And His Orchestra"
    INDEX 00 03:09:60
FILE "12. Mahogany Hall Stomp.flac" WAVE
    INDEX 01 00:00:00
  TRACK 13 AUDIO
    TITLE "Swing, You Cats"
    PERFORMER "Louis Armstrong And His Orchestra"
    INDEX 00 02:35:03
FILE "13. Swing, You Cats.flac" WAVE
    INDEX 01 00:00:00
  TRACK 14 AUDIO
    TITLE "Honey, Don't You Love Me Anymore?"
    PERFORMER "Louis Armstrong And His Orchestra"
    INDEX 00 02:37:33
FILE "14. Honey, Don't You Love Me Anymore.flac" WAVE
    INDEX 01 00:00:00
  TRACK 15 AUDIO
    TITLE "Mississippi Basin"
    PERFORMER "Louis Armstrong And His Orchestra"
    INDEX 00 02:57:53
FILE "15. Mississippi Basin.flac" WAVE
    INDEX 01 00:00:00
  TRACK 16 AUDIO
    TITLE "Laughin' Louie"
    PERFORMER "Louis Armstrong And His Orchestra"
    INDEX 00 03:03:37
FILE "16. Laughin' Louie.flac" WAVE
    INDEX 01 00:00:00
  TRACK 17 AUDIO
    TITLE "Tomorrow Night"
    PERFORMER "Louis Armstrong And His Orchestra"
    INDEX 00 03:25:53
FILE "17. Tomorrow Night.flac" WAVE
    INDEX 01 00:00:00
  TRACK 18 AUDIO
    TITLE "Dusky Stevedore"
    PERFORMER "Louis Armstrong And His Orchestra"
    INDEX 00 03:13:15
FILE "18. Dusky Stevedore.flac" WAVE
    INDEX 01 00:00:00
  TRACK 19 AUDIO
    TITLE "There's A Cabin In The Pines"
    PERFORMER "Louis Armstrong And His Orchestra"
    INDEX 00 02:54:42
FILE "19. There's A Cabin In The Pines.flac" WAVE
    INDEX 01 00:00:00
  TRACK 20 AUDIO
    TITLE "Mighty River"
    PERFORMER "Louis Armstrong And His Orchestra"
    INDEX 00 03:17:03
FILE "20. Mighty River.flac" WAVE
    INDEX 01 00:00:00
  TRACK 21 AUDIO
    TITLE "Sweet Sue, Just You"
    PERFORMER "Louis Armstrong And His Orchestra"
    INDEX 00 02:37:35
FILE "21. Sweet Sue, Just You.flac" WAVE
    INDEX 01 00:00:00
  TRACK 22 AUDIO
    TITLE "I Wonder Who"
    PERFORMER "Louis Armstrong And His Orchestra"
    INDEX 00 02:45:10
FILE "22. I Wonder Who.flac" WAVE
    INDEX 01 00:00:00
  TRACK 23 AUDIO
    TITLE "St. Louis Blues"
    PERFORMER "Louis Armstrong And His Orchestra"
    INDEX 00 03:05:02
FILE "23. St. Louis Blues.flac" WAVE
    INDEX 01 00:00:00
  TRACK 24 AUDIO
    TITLE "Don't Play Me Cheap"
    PERFORMER "Louis Armstrong And His Orchestra"
    INDEX 00 02:40:08
FILE "24. Don't Play Me Cheap.flac" WAVE
    INDEX 01 00:00:00
No seeders - write personal message to M0p94ok. Any questions - support@pro-jazz.com.
Нет сидеров - пишите в личку M0p94ok. Есть вопросы - support@pro-jazz.com
14:43
210
Нет комментариев. Ваш будет первым!