Поиск

1990 Louis Armstrong - 1936-1937 {The Chronological Classics CC512} [CD]

 1990 Louis Armstrong - 1936-1937 {The Chronological Classics CC512} [CD]
Стили:
Издатель (лейбл):
Номер по каталогу:
CC512
Доп. инфо:

Носитель: CD
Страна-производитель диска: Франция
Год издания: 1990
Издатель (лейбл): Classics
Номер по каталогу: 512
Страна: США
Аудиокодек: FLAC (*.flac)
Тип рипа: tracks+.cue
Битрейт аудио: lossless
Продолжительность: 70:50
Источник (релизер): xmaximax (what)
Наличие сканов в содержимом раздачи: да

Лог создания рипа
Exact Audio Copy V0.99 prebeta 5 from 4. May 2009

EAC extraction logfile from 19. August 2011, 23:11

Louis Armstrong / Louis Armstrong 1936-1937

Used drive  : Optiarc DVD RW AD-7260S   Adapter: 3  ID: 0

Read mode               : Secure
Utilize accurate stream : Yes
Defeat audio cache      : Yes
Make use of C2 pointers : No

Read offset correction                      : 48
Overread into Lead-In and Lead-Out          : No
Fill up missing offset samples with silence : Yes
Delete leading and trailing silent blocks   : No
Null samples used in CRC calculations       : Yes
Used interface                              : Native Win32 interface for Win NT & 2000
Gap handling                                : Appended to previous track

Used output format              : User Defined Encoder
Selected bitrate                : 320 kBit/s
Quality                         : High
Add ID3 tag                     : No
Command line compressor         : C:\Program Files (x86)\FLAC\flac.exe
Additional command line options : -V -8 -T "artist=%a" -T "title=%t" -T "album=%g" -T "date=%y" -T "tracknumber=%n" -T "genre=%m" %s

TOC of the extracted CD

     Track |   Start  |  Length  | Start sector | End sector
    ---------------------------------------------------------
        1  |  0:00.32 |  2:37.48 |        32    |    11854
        2  |  2:38.05 |  2:47.40 |     11855    |    24419
        3  |  5:25.45 |  3:00.42 |     24420    |    37961
        4  |  8:26.12 |  3:09.38 |     37962    |    52174
        5  | 11:35.50 |  3:11.12 |     52175    |    66511
        6  | 14:46.62 |  2:52.58 |     66512    |    79469
        7  | 17:39.45 |  2:52.12 |     79470    |    92381
        8  | 20:31.57 |  2:58.30 |     92382    |   105761
        9  | 23:30.12 |  3:04.03 |    105762    |   119564
       10  | 26:34.15 |  2:54.15 |    119565    |   132629
       11  | 29:28.30 |  3:07.37 |    132630    |   146691
       12  | 32:35.67 |  2:37.45 |    146692    |   158511
       13  | 35:13.37 |  2:59.30 |    158512    |   171966
       14  | 38:12.67 |  2:44.60 |    171967    |   184326
       15  | 40:57.52 |  2:50.68 |    184327    |   197144
       16  | 43:48.45 |  4:25.57 |    197145    |   217076
       17  | 48:14.27 |  4:20.13 |    217077    |   236589
       18  | 52:34.40 |  2:57.65 |    236590    |   249929
       19  | 55:32.30 |  3:10.62 |    249930    |   264241
       20  | 58:43.17 |  3:14.30 |    264242    |   278821
       21  | 61:57.47 |  3:07.10 |    278822    |   292856
       22  | 65:04.57 |  3:01.58 |    292857    |   306489
       23  | 68:06.40 |  2:42.65 |    306490    |   318704

Track  1

     Filename E:\Rips\01 - YES! YES! MY! MY!.wav

     Pre-gap length  0:00:02.42

     Peak level 99.1 %
     Track quality 100.0 %
     Test CRC B82E51CE
     Copy CRC B82E51CE
     Accurately ripped (confidence 2)  [591C1072]
     Copy OK

Track  2

     Filename E:\Rips\02 - SOMEBODY STOLE MY BREAK.wav

     Pre-gap length  0:00:02.17

     Peak level 91.3 %
     Track quality 100.0 %
     Test CRC 86AF0248
     Copy CRC 86AF0248
     Accurately ripped (confidence 2)  [4E36F791]
     Copy OK

Track  3

     Filename E:\Rips\03 - I COME FROM A MUSICAL FAMILY.wav

     Pre-gap length  0:00:02.33

     Peak level 85.9 %
     Track quality 100.0 %
     Test CRC BC1AEB64
     Copy CRC BC1AEB64
     Accurately ripped (confidence 2)  [FC7558C9]
     Copy OK

Track  4

     Filename E:\Rips\04 - IF WE NEVER MEET AGAIN.wav

     Pre-gap length  0:00:02.06

     Peak level 83.4 %
     Track quality 100.0 %
     Test CRC FD9FC202
     Copy CRC FD9FC202
     Accurately ripped (confidence 2)  [DA5C3EE7]
     Copy OK

Track  5

     Filename E:\Rips\05 - LYIN' TO MYSELF.wav

     Pre-gap length  0:00:01.84

     Peak level 100.0 %
     Track quality 100.0 %
     Test CRC AC3D55D0
     Copy CRC AC3D55D0
     Accurately ripped (confidence 2)  [9AE6AF27]
     Copy OK

Track  6

     Filename E:\Rips\06 - EV'TIDE.wav

     Pre-gap length  0:00:01.89

     Peak level 78.3 %
     Track quality 100.0 %
     Test CRC 45630E21
     Copy CRC 45630E21
     Accurately ripped (confidence 2)  [91B68018]
     Copy OK

Track  7

     Filename E:\Rips\07 - SWING THAT MUSIC.wav

     Pre-gap length  0:00:01.70

     Peak level 100.0 %
     Track quality 100.0 %
     Test CRC 3CF14709
     Copy CRC 3CF14709
     Accurately ripped (confidence 2)  [F33D236C]
     Copy OK

Track  8

     Filename E:\Rips\08 - THANKFUL.wav

     Pre-gap length  0:00:01.89

     Peak level 76.2 %
     Track quality 100.0 %
     Test CRC 288FA183
     Copy CRC 288FA183
     Accurately ripped (confidence 2)  [F7F19F46]
     Copy OK

Track  9

     Filename E:\Rips\09 - RED NOSE.wav

     Pre-gap length  0:00:01.69

     Peak level 92.0 %
     Track quality 100.0 %
     Test CRC B1386EFC
     Copy CRC B1386EFC
     Accurately ripped (confidence 2)  [96A4B35F]
     Copy OK

Track 10

     Filename E:\Rips\10 - MAHOGANY HALL STOMP.wav

     Pre-gap length  0:00:01.64

     Peak level 83.2 %
     Track quality 100.0 %
     Test CRC BCD06A42
     Copy CRC BCD06A42
     Accurately ripped (confidence 2)  [FC4670D3]
     Copy OK

Track 11

     Filename E:\Rips\11 - THE SKELETON IN THE CLOSET.wav

     Pre-gap length  0:00:01.60

     Peak level 89.2 %
     Track quality 100.0 %
     Test CRC C91F485F
     Copy CRC C91F485F
     Accurately ripped (confidence 2)  [464395A1]
     Copy OK

Track 12

     Filename E:\Rips\12 - WHEN RUBEN SWINGS THE CUBAN.wav

     Pre-gap length  0:00:01.76

     Peak level 93.5 %
     Track quality 100.0 %
     Test CRC A8FDB2D4
     Copy CRC A8FDB2D4
     Accurately ripped (confidence 2)  [82CF53C6]
     Copy OK

Track 13

     Filename E:\Rips\13 - HURDY-GURDY MAN.wav

     Pre-gap length  0:00:02.42

     Peak level 98.2 %
     Track quality 100.0 %
     Test CRC E3D6A8AC
     Copy CRC E3D6A8AC
     Accurately ripped (confidence 2)  [6CF8E058]
     Copy OK

Track 14

     Filename E:\Rips\14 - DIPPER MOUTH BLUES.wav

     Pre-gap length  0:00:01.86

     Peak level 77.6 %
     Track quality 100.0 %
     Test CRC FC01AE98
     Copy CRC FC01AE98
     Accurately ripped (confidence 2)  [FA9E469F]
     Copy OK

Track 15

     Filename E:\Rips\15 - SWING THAT MUSIC.wav

     Pre-gap length  0:00:01.89

     Peak level 81.8 %
     Track quality 100.0 %
     Test CRC D58646E1
     Copy CRC D58646E1
     Accurately ripped (confidence 2)  [18EF6B1D]
     Copy OK

Track 16

     Filename E:\Rips\16 - PENNIES FROM HEAVEN MEDLEY.wav

     Pre-gap length  0:00:02.20

     Peak level 99.9 %
     Track quality 100.0 %
     Test CRC 06ABF879
     Copy CRC 06ABF879
     Accurately ripped (confidence 2)  [ECA8A201]
     Copy OK

Track 17

     Filename E:\Rips\17 - PENNIES FROM HEAVEN.wav

     Pre-gap length  0:00:02.29

     Peak level 94.1 %
     Track quality 100.0 %
     Test CRC 1D10AE8A
     Copy CRC 1D10AE8A
     Accurately ripped (confidence 2)  [C1C7AA56]
     Copy OK

Track 18

     Filename E:\Rips\18 - TO YOU, SWEETHEART, ALOHA.wav

     Pre-gap length  0:00:01.93

     Peak level 96.6 %
     Track quality 100.0 %
     Test CRC AFF4D7A4
     Copy CRC AFF4D7A4
     Accurately ripped (confidence 2)  [93A0654A]
     Copy OK

Track 19

     Filename E:\Rips\19 - ON A COCANUT ISLAND.wav

     Pre-gap length  0:00:01.64

     Peak level 94.1 %
     Track quality 100.0 %
     Test CRC 8F2B8507
     Copy CRC 8F2B8507
     Accurately ripped (confidence 2)  [8B8B38D5]
     Copy OK

Track 20

     Filename E:\Rips\20 - ON A LITTLE BAMBOO BRIDGE.wav

     Pre-gap length  0:00:01.76

     Peak level 80.4 %
     Track quality 100.0 %
     Test CRC B29644A6
     Copy CRC B29644A6
     Accurately ripped (confidence 2)  [26A13CE7]
     Copy OK

Track 21

     Filename E:\Rips\21 - HAWAIAN HOSPITALITY.wav

     Pre-gap length  0:00:01.96

     Peak level 85.0 %
     Track quality 100.0 %
     Test CRC 4447F6A9
     Copy CRC 4447F6A9
     Accurately ripped (confidence 2)  [D983AA25]
     Copy OK

Track 22

     Filename E:\Rips\22 - CARRY ME BACK TO OLD VIRGINNY.wav

     Pre-gap length  0:00:01.76

     Peak level 83.8 %
     Track quality 100.0 %
     Test CRC 67FB6773
     Copy CRC 67FB6773
     Accurately ripped (confidence 2)  [70BE8423]
     Copy OK

Track 23

     Filename E:\Rips\23 - DARLING NELLY GRAY.wav

     Pre-gap length  0:00:01.80

     Peak level 96.7 %
     Track quality 100.0 %
     Test CRC F70C7168
     Copy CRC F70C7168
     Accurately ripped (confidence 2)  [8EAFDDA2]
     Copy OK

All tracks accurately ripped

No errors occurred

End of status report
Содержание индексной карты (.CUE)
REM GENRE Jazz
REM DATE 1990
REM DISCID 5B109917
REM COMMENT "ExactAudioCopy v0.99pb5"
PERFORMER "Louis Armstrong"
TITLE "1936-1937"
FILE "01 - Yes! Yes! My! My!.wav" WAVE
  TRACK 01 AUDIO
    TITLE "Yes! Yes! My! My!"
    PERFORMER "Louis Armstrong"
    PREGAP 00:00:32
    INDEX 01 00:00:00
  TRACK 02 AUDIO
    TITLE "Somebody Stole My Break"
    PERFORMER "Louis Armstrong"
    INDEX 00 02:35:35
FILE "02 - Somebody Stole My Break.wav" WAVE
    INDEX 01 00:00:00
  TRACK 03 AUDIO
    TITLE "I Come from a Musical Family"
    PERFORMER "Louis Armstrong"
    INDEX 00 02:45:15
FILE "03 - I Come from a Musical Family.wav" WAVE
    INDEX 01 00:00:00
  TRACK 04 AUDIO
    TITLE "If We Never Meet Again"
    PERFORMER "Louis Armstrong"
    INDEX 00 02:58:37
FILE "04 - If We Never Meet Again.wav" WAVE
    INDEX 01 00:00:00
  TRACK 05 AUDIO
    TITLE "Lyin' to Myself"
    PERFORMER "Louis Armstrong"
    INDEX 00 03:07:50
FILE "05 - Lyin' to Myself.wav" WAVE
    INDEX 01 00:00:00
  TRACK 06 AUDIO
    TITLE "Ev'ntide"
    PERFORMER "Louis Armstrong"
    INDEX 00 03:09:20
FILE "06 - Ev'ntide.wav" WAVE
    INDEX 01 00:00:00
  TRACK 07 AUDIO
    TITLE "Swing That Music"
    PERFORMER "Louis Armstrong"
    INDEX 00 02:51:05
FILE "07 - Swing That Music.wav" WAVE
    INDEX 01 00:00:00
  TRACK 08 AUDIO
    TITLE "Thankful"
    PERFORMER "Louis Armstrong"
    INDEX 00 02:50:20
FILE "08 - Thankful.wav" WAVE
    INDEX 01 00:00:00
  TRACK 09 AUDIO
    TITLE "Red Nose"
    PERFORMER "Louis Armstrong"
    INDEX 00 02:56:53
FILE "09 - Red Nose.wav" WAVE
    INDEX 01 00:00:00
  TRACK 10 AUDIO
    TITLE "Mahogany Hall Stomp"
    PERFORMER "Louis Armstrong"
    INDEX 00 03:02:30
FILE "10 - Mahogany Hall Stomp.wav" WAVE
    INDEX 01 00:00:00
  TRACK 11 AUDIO
    TITLE "The Skeleton in the Closet"
    PERFORMER "Louis Armstrong"
    INDEX 00 02:52:45
FILE "11 - The Skeleton in the Closet.wav" WAVE
    INDEX 01 00:00:00
  TRACK 12 AUDIO
    TITLE "When Ruben Swings the Cuban"
    PERFORMER "Louis Armstrong"
    INDEX 00 03:05:55
FILE "12 - When Ruben Swings the Cuban.wav" WAVE
    INDEX 01 00:00:00
  TRACK 13 AUDIO
    TITLE "Hurdy-Gurdy Man"
    PERFORMER "Louis Armstrong"
    INDEX 00 02:35:13
FILE "13 - Hurdy-Gurdy Man.wav" WAVE
    INDEX 01 00:00:00
  TRACK 14 AUDIO
    TITLE "Dipper Mouth Blues"
    PERFORMER "Louis Armstrong"
    INDEX 00 02:57:40
FILE "14 - Dipper Mouth Blues.wav" WAVE
    INDEX 01 00:00:00
  TRACK 15 AUDIO
    TITLE "Swing That Music"
    PERFORMER "Louis Armstrong"
    INDEX 00 02:42:68
FILE "15 - Swing That Music.wav" WAVE
    INDEX 01 00:00:00
  TRACK 16 AUDIO
    TITLE "Pennies from Heaven Medley"
    PERFORMER "Louis Armstrong"
    INDEX 00 02:48:53
FILE "16 - Pennies from Heaven Medley.wav" WAVE
    INDEX 01 00:00:00
  TRACK 17 AUDIO
    TITLE "Pennies from Heaven"
    PERFORMER "Louis Armstrong"
    INDEX 00 04:23:35
FILE "17 - Pennies from Heaven.wav" WAVE
    INDEX 01 00:00:00
  TRACK 18 AUDIO
    TITLE "To You, Sweetheart, Aloha"
    PERFORMER "Louis Armstrong"
    INDEX 00 04:18:18
FILE "18 - To You, Sweetheart, Aloha.wav" WAVE
    INDEX 01 00:00:00
  TRACK 19 AUDIO
    TITLE "On a Cocoanut Island"
    PERFORMER "Louis Armstrong"
    INDEX 00 02:56:17
FILE "19 - On a Cocoanut Island.wav" WAVE
    INDEX 01 00:00:00
  TRACK 20 AUDIO
    TITLE "On a Little Bamboo Bridge"
    PERFORMER "Louis Armstrong"
    INDEX 00 03:09:05
FILE "20 - On a Little Bamboo Bridge.wav" WAVE
    INDEX 01 00:00:00
  TRACK 21 AUDIO
    TITLE "Hawaiian Hospitality"
    PERFORMER "Louis Armstrong"
    INDEX 00 03:12:33
FILE "21 - Hawaiian Hospitality.wav" WAVE
    INDEX 01 00:00:00
  TRACK 22 AUDIO
    TITLE "Carry Me Back to Old Virginny"
    PERFORMER "Louis Armstrong"
    INDEX 00 03:05:28
FILE "22 - Carry Me Back to Old Virginny.wav" WAVE
    INDEX 01 00:00:00
  TRACK 23 AUDIO
    TITLE "Darling Nelly Gray"
    PERFORMER "Louis Armstrong"
    INDEX 00 02:59:73
FILE "23 - Darling Nelly Gray.wav" WAVE
    INDEX 01 00:00:00
Лог проверки качества
[CUETools log; Date: 06.12.2013 17:51:45; Version: 2.1.4]
Pregap length 00:00:32.
[CTDB TOCID: g4kCeadhndF7w2rFwEgKXC3ybgs-] found.
Track | CTDB Status
  1   | (1/1) Accurately ripped
  2   | (1/1) Accurately ripped
  3   | (1/1) Accurately ripped
  4   | (1/1) Accurately ripped
  5   | (1/1) Accurately ripped
  6   | (1/1) Accurately ripped
  7   | (1/1) Accurately ripped
  8   | (1/1) Accurately ripped
  9   | (1/1) Accurately ripped
 10   | (1/1) Accurately ripped
 11   | (1/1) Accurately ripped
 12   | (1/1) Accurately ripped
 13   | (1/1) Accurately ripped
 14   | (1/1) Accurately ripped
 15   | (1/1) Accurately ripped
 16   | (1/1) Accurately ripped
 17   | (1/1) Accurately ripped
 18   | (1/1) Accurately ripped
 19   | (1/1) Accurately ripped
 20   | (1/1) Accurately ripped
 21   | (1/1) Accurately ripped
 22   | (1/1) Accurately ripped
 23   | (1/1) Accurately ripped
[AccurateRip ID: 00392949-03c057d9-5b109917] found.
Track   [  CRC   |   V2   ] Status
 01     [591c1072|c227a244] (2+0/2) Accurately ripped
 02     [4e36f791|46c5b769] (2+0/2) Accurately ripped
 03     [fc7558c9|d720b3bd] (2+0/2) Accurately ripped
 04     [da5c3ee7|0e97fbdc] (2+0/2) Accurately ripped
 05     [9ae6af27|cb04622c] (2+0/2) Accurately ripped
 06     [91b68018|a3fa9216] (2+0/2) Accurately ripped
 07     [f33d236c|f53b555e] (2+0/2) Accurately ripped
 08     [f7f19f46|202e516d] (2+0/2) Accurately ripped
 09     [96a4b35f|bc1fa51a] (2+0/2) Accurately ripped
 10     [fc4670d3|94eb2040] (2+0/2) Accurately ripped
 11     [464395a1|2fa2b98b] (2+0/2) Accurately ripped
 12     [82cf53c6|b386ab50] (2+0/2) Accurately ripped
 13     [6cf8e058|eba21fc4] (2+0/2) Accurately ripped
 14     [fa9e469f|0e185a3c] (2+0/2) Accurately ripped
 15     [18ef6b1d|25ff3d85] (2+0/2) Accurately ripped
 16     [eca8a201|281a78ef] (2+0/2) Accurately ripped
 17     [c1c7aa56|69c5a652] (2+0/2) Accurately ripped
 18     [93a0654a|b24b89e1] (2+0/2) Accurately ripped
 19     [8b8b38d5|d11e1209] (2+0/2) Accurately ripped
 20     [26a13ce7|6c96fec5] (2+0/2) Accurately ripped
 21     [d983aa25|00bf7233] (2+0/2) Accurately ripped
 22     [70be8423|b0e9532b] (2+0/2) Accurately ripped
 23     [8eafdda2|1846124a] (2+0/2) Accurately ripped

Track Peak [ CRC32  ] [W/O NULL] [  LOG   ]
 --  100,0 [45783030] [83BB4020]
 01   99,1 [B82E51CE] [35624E81]   CRC32
 02   91,3 [86AF0248] [63ACCAC1]   CRC32
 03   85,9 [BC1AEB64] [FBB03CD8]   CRC32
 04   83,4 [FD9FC202] [90E04D82]   CRC32
 05  100,0 [AC3D55D0] [F598949D]   CRC32
 06   78,3 [45630E21] [10E93E18]   CRC32
 07  100,0 [3CF14709] [E962111E]   CRC32
 08   76,2 [288FA183] [ADADDD68]   CRC32
 09   92,0 [B1386EFC] [62E1044E]   CRC32
 10   83,2 [BCD06A42] [4D3E6C29]   CRC32
 11   89,2 [C91F485F] [6F720CF1]   CRC32
 12   93,5 [A8FDB2D4] [E70D8EC6]   CRC32
 13   98,2 [E3D6A8AC] [18FDDB17]   CRC32
 14   77,6 [FC01AE98] [3E296197]   CRC32
 15   81,8 [D58646E1] [8CA3D43D]   CRC32
 16   99,9 [06ABF879] [81ED9A70]   CRC32
 17   94,1 [1D10AE8A] [9A670627]   CRC32
 18   96,6 [AFF4D7A4] [AD68D7A0]   CRC32
 19   94,1 [8F2B8507] [05C8DA5A]   CRC32
 20   80,4 [B29644A6] [0820FF18]   CRC32
 21   85,0 [4447F6A9] [D80BF459]   CRC32
 22   83,8 [67FB6773] [0477E010]   CRC32
 23   96,7 [F70C7168] [7CEC2DA2]   CRC32
No seeders - write personal message to M0p94ok. Any questions - support@pro-jazz.com.
Нет сидеров - пишите в личку M0p94ok. Есть вопросы - support@pro-jazz.com
10:23
180
Нет комментариев. Ваш будет первым!