Поиск

1990 Jimmie Lunceford And His Orchestra - 1935-1937 {The Chronological Classics CC510} [CD]

1990 Jimmie Lunceford And His Orchestra - 1935-1937 {The Chronological Classics CC510} [CD]
Стили:
Дата издания диска:
1990
Издатель (лейбл):
Номер по каталогу:
CC510
Носитель:
CD
Тип рипа:
tracks+.cue
Аудиокодек:
FLAC (*.flac)
Битрейт аудио:
lossless
Время звучания:
01:09:30
Наличие сканов:
буклет pdf
Страна-производитель диска (релиза):
France
Релизёр (источник):
M0p94ok
Доп. инфо:
 
Состав

My Blue Heaven / I'm Nuts About Screwy Music / The Best Things in Life Are Free / The Melody Man / Organ Grinder's Swing

Jimmie Lunceford - arrangiamenti, direttore orchestra
Eddie Tompkins - tromba
Paul Webster - tromba
Sy Oliver - tromba
Sy Oliver - voce (brani: My Blue Heaven in trio e The Melody Man)
Sy Oliver - arrangiamento (brani: My Blue Heaven, The Melody Man e Organ Grinder's Swing)
Elmer Crumbley - trombone
Russell Bowles - trombone
Eddie Durham - trombone, chitarra, arrangiamenti
Willie Smith - clarinetto, sassofono alto, sassofono baritono, arrangiamenti
Willie Smith - voce (brani: My Blue Heaven in trio e I'm Nuts About Screwy Music)
Laforet Dent - sassofono alto
Dan Grissom - clarinetto, sassofono alto
Dan Grissom - voce (brani: My Blue Heaven in trio e The Best Things in Life Are Free)
Earl Carruthers - clarinetto, sassofono alto, sassofono baritono
Joe Thomas - clarinetto, sassofono tenore
Edwin Wilcox - pianoforte, celeste
Edwin Wilcox - arrangiamento (brani: I'm Nuts About Screwy Music e The Best Things in Life Are Free)
Al Norris - chitarra
Moses Allen - contrabbasso
Jimmy Crawford - batteria, vibrafono

On the Beach at Bali-Bali / Me and the Moon / Living from Day to Day / 'Tain't Good (Like a Nickle Made of Wood)
Muddy Water (A Mississippi Moan) / I Can't Escape from You / Harlem Shout
(This Is) My Last Affair / Running a Temperature
Count Me Out
I'll See You in My Dreams 

Jimmie Lunceford - direttore orchestra
Eddie Tompkins - tromba
Paul Webster - tromba
Sy Oliver - tromba
Sy Oliver - voce solista (brani: On the Beach at Bali-Bali e Running a Temperature)
Sy Oliver - voce (in trio) (brani: Me and the Moon, 'Tain't Good (Like a Nickle Made of Wood) e Muddy Water (A Mississippi Moan))
Sy Oliver - arrangiamenti (brani: On the Beach at Bali-Bali, Me and the Moon, Living from Day to Day, 'Tain't Good (Like a Nickle Made of Wood), Muddy Water (A Mississippi Moan), I Can't Escape from You e (This Is) My Last Affair)
Elmer Crumbley - trombone
Russell Bowles - trombone
Eddie Durham - trombone, chitarra
Eddie Durham - arrangiamenti (brani: Harlem Shout, Running a Temperature e Count Me Out)
Willie Smith - clarinetto, sassofono alto, sassofono baritono
Willie Smith - voce (in trio) (brani: Me and the Moon, 'Tain't Good (Like a Nickle Made of Wood) e Muddy Water (A Mississippi Moan))
Willie Smith - arrangiamento (?)
Laforet Dent - sassofono alto
Dan Grissom - clarinetto, sassofono alto
Dan Grissom - voce solista (brani: Living from Day to Day, I Can't Escape from You, (This Is) My Last Affair, Count Me Out e I'll See You in My Dreams)
Dan Grissom - voce (in trio) (brani: Me and the Moon, 'Tain't Good (Like a Nickle Made of Wood) e Muddy Water (A Mississippi Moan))
Earl Carruthers - clarinetto, sassofono alto, sassofono baritono
Joe Thomas - clarinetto, sassofono tenore
Edwin Wilcox - pianoforte, celeste
Edwin Wilcox - arrangiamento (brano: I'll See You in My Dreams)
Al Norris - chitarra
Moses Allen - contrabbasso
Jimmy Crawford - batteria, vibrafono

He Ain't Got Rhythm / Linger Awhile / Honest and Truly / Slumming on Park Avenue

Jimmie Lunceford - direttore orchestra
Eddie Tompkins - tromba
Paul Webster - tromba
Sy Oliver - tromba
Sy Oliver - voce (in trio) (brano: Slumming on Park Avenue)
Sy Oliver - arrangiamenti (brani: He Ain't Got Rhythm e Linger Awhile)
Elmer Crumbley - trombone
Russell Bowles - trombone
Eddie Durham - trombone, chitarra
Willie Smith - clarinetto, sassofono alto, sassofono baritono
Laforet Dent - sassofono alto
Dan Grissom - clarinetto, sassofono alto
Dan Grissom - voce solista (brani: Linger Awhile e Honest and Truly)
Dan Grissom - voce (in trio) (brano: Slumming on Park Avenue)
Earl Carruthers - clarinetto, sassofono alto, sassofono baritono
Joe Thomas - voce solista (brano: He Ain't Got Rhythm)
Joe Thomas - voce (in trio) (brano: Slumming on Park Avenue)
Edwin Wilcox - pianoforte, celeste
Edwin Wilcox - arrangiamento (brano: Honest and Truly)
Al Norris - chitarra
Moses Allen - contrabbasso
Jimmy Crawford - batteria, vibrafono

Coquette / The Merry-Go-Round Broke Down / Ragging the Scale

Jimmie Lunceford - direttore orchestra
Eddie Tompkins - tromba
Paul Webster - tromba
Sy Oliver - tromba
Sy Oliver - voce solista (brano: The Merry-Go-Round Broke Down)
Sy Oliver - arrangiamenti (brani: Coquette, The Merry-Go-Round Broke Down e Ragging the Scale)
Elmer Crumbley - trombone
Russell Bowles - trombone
Eddie Durham - trombone, chitarra
Willie Smith - clarinetto, sassofono alto, sassofono baritono
Ed Brown - sassofono alto
Dan Grissom - clarinetto, sassofono alto
Dan Grissom - voce solista (brano: Coquette)
Earl Carruthers - clarinetto, sassofono alto, sassofono baritono
Joe Thomas - clarinetto, sassofono tenore
Edwin Wilcox - pianoforte, celeste
Al Norris - chitarra
Moses Allen - contrabbasso
Jimmy Crawford - batteria, vibrafono

Лог создания рипа
Exact Audio Copy V0.99 prebeta 5 from 4. May 2009

EAC extraction logfile from 13. April 2010, 18:36

Jimmie Lunceford / 1935-1937

Used drive  : _NEC    DVD_RW ND-3500AG   Adapter: 1  ID: 0

Read mode               : Secure
Utilize accurate stream : Yes
Defeat audio cache      : Yes
Make use of C2 pointers : No

Read offset correction                      : 48
Overread into Lead-In and Lead-Out          : No
Fill up missing offset samples with silence : Yes
Delete leading and trailing silent blocks   : No
Null samples used in CRC calculations       : Yes
Used interface                              : Installed external ASPI interface
Gap handling                                : Appended to previous track

Used output format              : User Defined Encoder
Selected bitrate                : 128 kBit/s
Quality                         : High
Add ID3 tag                     : No
Command line compressor         : C:\Program Files\Exact Audio Copy\Flac\flac.exe
Additional command line options : -8 -V -T "ARTIST=%a" -T "TITLE=%t" -T "ALBUM=%g" -T "DATE=%y" -T "TRACKNUMBER=%n" -T "TOTALTRACKS=%x" -T "GENRE=%m" -T "ALBUM ARTIST=%v" -T "ALBUMARTIST=%v" -T "COMMENT=EAC V0.99 prebeta 5, Secure Mode, Test & Copy, Accurat

TOC of the extracted CD

     Track |   Start  |  Length  | Start sector | End sector
    ---------------------------------------------------------
        1  |  0:00.32 |  3:14.40 |        32    |    14621
        2  |  3:14.72 |  3:06.30 |     14622    |    28601
        3  |  6:21.27 |  3:24.30 |     28602    |    43931
        4  |  9:45.57 |  3:04.15 |     43932    |    57746
        5  | 12:49.72 |  2:40.25 |     57747    |    69771
        6  | 15:30.22 |  2:59.63 |     69772    |    83259
        7  | 18:30.10 |  3:04.70 |     83260    |    97129
        8  | 21:35.05 |  3:05.52 |     97130    |   111056
        9  | 24:40.57 |  3:13.63 |    111057    |   125594
       10  | 27:54.45 |  2:57.30 |    125595    |   138899
       11  | 30:52.00 |  3:01.62 |    138900    |   152536
       12  | 33:53.62 |  3:00.20 |    152537    |   166056
       13  | 36:54.07 |  2:50.30 |    166057    |   178836
       14  | 39:44.37 |  3:00.03 |    178837    |   192339
       15  | 42:44.40 |  3:15.10 |    192340    |   206974
       16  | 45:59.50 |  2:46.57 |    206975    |   219481
       17  | 48:46.32 |  2:46.00 |    219482    |   231931
       18  | 51:32.32 |  2:36.55 |    231932    |   243686
       19  | 54:09.12 |  3:01.65 |    243687    |   257326
       20  | 57:11.02 |  3:03.48 |    257327    |   271099
       21  | 60:14.50 |  3:12.30 |    271100    |   285529
       22  | 63:27.05 |  2:53.37 |    285530    |   298541
       23  | 66:20.42 |  3:09.45 |    298542    |   312761

Track  1

     Filename C:\Music\01 - My Blue Heaven.wav

     Pre-gap length  0:00:02.42

     Peak level 92.8 %
     Track quality 100.0 %
     Test CRC 1843A518
     Copy CRC 1843A518
     Accurately ripped (confidence 2)  [60BA356E]
     Copy OK

Track  2

     Filename C:\Music\02 - I'm Nuts About Screwy Music.wav

     Pre-gap length  0:00:01.56

     Peak level 100.0 %
     Track quality 100.0 %
     Test CRC 284489CC
     Copy CRC 284489CC
     Accurately ripped (confidence 2)  [21EF67CB]
     Copy OK

Track  3

     Filename C:\Music\03 - The Best Things In Life Are Free.wav

     Pre-gap length  0:00:01.22

     Peak level 85.7 %
     Track quality 100.0 %
     Test CRC 1D601D56
     Copy CRC 1D601D56
     Accurately ripped (confidence 2)  [D0B930E4]
     Copy OK

Track  4

     Filename C:\Music\04 - The Melody Man.wav

     Pre-gap length  0:00:01.66

     Peak level 96.8 %
     Track quality 100.0 %
     Test CRC 373B61CD
     Copy CRC 373B61CD
     Accurately ripped (confidence 2)  [8FC01D4A]
     Copy OK

Track  5

     Filename C:\Music\05 - Organ Grinder's Swing.wav

     Pre-gap length  0:00:01.53

     Peak level 84.7 %
     Track quality 100.0 %
     Test CRC ADD8A51E
     Copy CRC ADD8A51E
     Accurately ripped (confidence 2)  [A0B046EA]
     Copy OK

Track  6

     Filename C:\Music\06 - On The Beach At Bali-Bali.wav

     Pre-gap length  0:00:01.66

     Peak level 78.7 %
     Track quality 100.0 %
     Test CRC 7BC1119F
     Copy CRC 7BC1119F
     Accurately ripped (confidence 2)  [B6CB1AAB]
     Copy OK

Track  7

     Filename C:\Music\07 - Me And The Moon.wav

     Pre-gap length  0:00:01.53

     Peak level 73.0 %
     Track quality 99.9 %
     Test CRC 90D0FF2B
     Copy CRC 90D0FF2B
     Accurately ripped (confidence 2)  [DD3E3138]
     Copy OK

Track  8

     Filename C:\Music\08 - Living From Day To Day.wav

     Pre-gap length  0:00:00.86

     Peak level 81.2 %
     Track quality 100.0 %
     Test CRC 307808D7
     Copy CRC 307808D7
     Accurately ripped (confidence 2)  [0FCCFCCA]
     Copy OK

Track  9

     Filename C:\Music\09 - 'Tain't Good.wav

     Pre-gap length  0:00:01.33

     Peak level 86.7 %
     Track quality 100.0 %
     Test CRC ACCA70C5
     Copy CRC ACCA70C5
     Accurately ripped (confidence 2)  [692CD67C]
     Copy OK

Track 10

     Filename C:\Music\10 - Muddy Water.wav

     Pre-gap length  0:00:01.64

     Peak level 100.0 %
     Track quality 100.0 %
     Test CRC 9A722AD2
     Copy CRC 9A722AD2
     Accurately ripped (confidence 2)  [CE5DBB84]
     Copy OK

Track 11

     Filename C:\Music\11 - I Can't Escape From You.wav

     Pre-gap length  0:00:01.46

     Peak level 66.3 %
     Track quality 100.0 %
     Test CRC 136FD616
     Copy CRC 136FD616
     Accurately ripped (confidence 2)  [17FB7B3C]
     Copy OK

Track 12

     Filename C:\Music\12 - Harlem Shout.wav

     Pre-gap length  0:00:01.36

     Peak level 83.8 %
     Track quality 100.0 %
     Test CRC 3D476802
     Copy CRC 3D476802
     Accurately ripped (confidence 2)  [5365876C]
     Copy OK

Track 13

     Filename C:\Music\13 - (This Is) My Last Affair.wav

     Pre-gap length  0:00:02.40

     Peak level 87.9 %
     Track quality 100.0 %
     Test CRC 00A7AC9B
     Copy CRC 00A7AC9B
     Accurately ripped (confidence 2)  [1AECFF3F]
     Copy OK

Track 14

     Filename C:\Music\14 - Running A Temperature.wav

     Pre-gap length  0:00:01.73

     Peak level 81.6 %
     Track quality 100.0 %
     Test CRC CF49B2E1
     Copy CRC CF49B2E1
     Accurately ripped (confidence 2)  [38EF8D8F]
     Copy OK

Track 15

     Filename C:\Music\15 - Count Me Out.wav

     Pre-gap length  0:00:01.37

     Peak level 88.9 %
     Track quality 100.0 %
     Test CRC 0B6C6B4F
     Copy CRC 0B6C6B4F
     Accurately ripped (confidence 2)  [F71EE095]
     Copy OK

Track 16

     Filename C:\Music\16 - I'll See You In My Dreams.wav

     Pre-gap length  0:00:01.46

     Peak level 75.3 %
     Track quality 100.0 %
     Test CRC 610E32E0
     Copy CRC 610E32E0
     Accurately ripped (confidence 2)  [91CAECF3]
     Copy OK

Track 17

     Filename C:\Music\17 - He Ain't Got Rhythm.wav

     Pre-gap length  0:00:01.46

     Peak level 74.4 %
     Track quality 100.0 %
     Test CRC F7B0A630
     Copy CRC F7B0A630
     Accurately ripped (confidence 2)  [A92CDADB]
     Copy OK

Track 18

     Filename C:\Music\18 - Linger Awhile.wav

     Pre-gap length  0:00:01.86

     Peak level 79.5 %
     Track quality 99.9 %
     Test CRC 115F509C
     Copy CRC 115F509C
     Accurately ripped (confidence 2)  [DC4C873D]
     Copy OK

Track 19

     Filename C:\Music\19 - Honest And Truly.wav

     Pre-gap length  0:00:02.09

     Peak level 77.2 %
     Track quality 100.0 %
     Test CRC 38E81D8F
     Copy CRC 38E81D8F
     Accurately ripped (confidence 2)  [280CC919]
     Copy OK

Track 20

     Filename C:\Music\20 - Slumming On Park Avenue.wav

     Pre-gap length  0:00:01.36

     Peak level 71.0 %
     Track quality 99.9 %
     Test CRC 52804DEB
     Copy CRC 52804DEB
     Accurately ripped (confidence 2)  [C43D7658]
     Copy OK

Track 21

     Filename C:\Music\21 - Coquette.wav

     Pre-gap length  0:00:01.17

     Peak level 78.6 %
     Track quality 100.0 %
     Test CRC 43EFE32C
     Copy CRC 43EFE32C
     Accurately ripped (confidence 2)  [F649E532]
     Copy OK

Track 22

     Filename C:\Music\22 - The Merry-Go-Round Broke Down.wav

     Pre-gap length  0:00:01.37

     Peak level 71.1 %
     Track quality 100.0 %
     Test CRC 70C4ABE1
     Copy CRC 70C4ABE1
     Accurately ripped (confidence 2)  [E114F5BD]
     Copy OK

Track 23

     Filename C:\Music\23 - Ragging The Scale.wav

     Pre-gap length  0:00:01.60

     Peak level 83.1 %
     Track quality 99.9 %
     Test CRC 205A9559
     Copy CRC 205A9559
     Accurately ripped (confidence 2)  [B6641286]
     Copy OK

All tracks accurately ripped

No errors occurred

End of status report
Содержание индексной карты (.CUE)
REM GENRE Jazz
REM DATE 1990
REM DISCID 61104A17
REM COMMENT "ExactAudioCopy v0.99pb5"
PERFORMER "Jimmie Lunceford And His Orchestra"
TITLE "1935-1937 {Chronological Classics, 510}"
FILE "01. My Blue Heaven.flac" WAVE
  TRACK 01 AUDIO
    TITLE "My Blue Heaven"
    PERFORMER "Jimmie Lunceford And His Orchestra"
    PREGAP 00:00:32
    INDEX 01 00:00:00
  TRACK 02 AUDIO
    TITLE "I'm Nuts About Screwy Music"
    PERFORMER "Jimmie Lunceford And His Orchestra"
    INDEX 00 03:12:73
FILE "02. I'm Nuts About Screwy Music.flac" WAVE
    INDEX 01 00:00:00
  TRACK 03 AUDIO
    TITLE "The Best Things In Life Are Free"
    PERFORMER "Jimmie Lunceford And His Orchestra"
    INDEX 00 03:05:13
FILE "03. The Best Things In Life Are Free.flac" WAVE
    INDEX 01 00:00:00
  TRACK 04 AUDIO
    TITLE "The Melody Man"
    PERFORMER "Jimmie Lunceford And His Orchestra"
    INDEX 00 03:22:55
FILE "04. The Melody Man.flac" WAVE
    INDEX 01 00:00:00
  TRACK 05 AUDIO
    TITLE "Organ Grinder's Swing"
    PERFORMER "Jimmie Lunceford And His Orchestra"
    INDEX 00 03:02:50
FILE "05. Organ Grinder's Swing.flac" WAVE
    INDEX 01 00:00:00
  TRACK 06 AUDIO
    TITLE "On The Beach At Bali-Bali"
    PERFORMER "Jimmie Lunceford And His Orchestra"
    INDEX 00 02:38:50
FILE "06. On The Beach At Bali-Bali.flac" WAVE
    INDEX 01 00:00:00
  TRACK 07 AUDIO
    TITLE "Me And The Moon"
    PERFORMER "Jimmie Lunceford And His Orchestra"
    INDEX 00 02:58:23
FILE "07. Me And The Moon.flac" WAVE
    INDEX 01 00:00:00
  TRACK 08 AUDIO
    TITLE "Living From Day To Day"
    PERFORMER "Jimmie Lunceford And His Orchestra"
    INDEX 00 03:04:05
FILE "08. Living From Day To Day.flac" WAVE
    INDEX 01 00:00:00
  TRACK 09 AUDIO
    TITLE "'Tain't Good (Like A Nickle Made Of Wood)"
    PERFORMER "Jimmie Lunceford And His Orchestra"
    INDEX 00 03:04:27
FILE "09. 'Tain't Good (Like A Nickle Made Of Wood).flac" WAVE
    INDEX 01 00:00:00
  TRACK 10 AUDIO
    TITLE "Muddy Water (A Mississippi Moan)"
    PERFORMER "Jimmie Lunceford And His Orchestra"
    INDEX 00 03:12:15
FILE "10. Muddy Water (A Mississippi Moan).flac" WAVE
    INDEX 01 00:00:00
  TRACK 11 AUDIO
    TITLE "I Can't Escape From You"
    PERFORMER "Jimmie Lunceford And His Orchestra"
    INDEX 00 02:55:70
FILE "11. I Can't Escape From You.flac" WAVE
    INDEX 01 00:00:00
  TRACK 12 AUDIO
    TITLE "Harlem Shout"
    PERFORMER "Jimmie Lunceford And His Orchestra"
    INDEX 00 03:00:35
FILE "12. Harlem Shout.flac" WAVE
    INDEX 01 00:00:00
  TRACK 13 AUDIO
    TITLE "(This Is) My Last Affair"
    PERFORMER "Jimmie Lunceford And His Orchestra"
    INDEX 00 02:57:65
FILE "13. (This Is) My Last Affair.flac" WAVE
    INDEX 01 00:00:00
  TRACK 14 AUDIO
    TITLE "Running A Temperature"
    PERFORMER "Jimmie Lunceford And His Orchestra"
    INDEX 00 02:48:50
FILE "14. Running A Temperature.flac" WAVE
    INDEX 01 00:00:00
  TRACK 15 AUDIO
    TITLE "Count Me Out"
    PERFORMER "Jimmie Lunceford And His Orchestra"
    INDEX 00 02:58:50
FILE "15. Count Me Out.flac" WAVE
    INDEX 01 00:00:00
  TRACK 16 AUDIO
    TITLE "I'll See You In My Dreams"
    PERFORMER "Jimmie Lunceford And His Orchestra"
    INDEX 00 03:13:50
FILE "16. I'll See You In My Dreams.flac" WAVE
    INDEX 01 00:00:00
  TRACK 17 AUDIO
    TITLE "He Ain't Got Rhythm"
    PERFORMER "Jimmie Lunceford And His Orchestra"
    INDEX 00 02:45:22
FILE "17. He Ain't Got Rhythm.flac" WAVE
    INDEX 01 00:00:00
  TRACK 18 AUDIO
    TITLE "Linger Awhile"
    PERFORMER "Jimmie Lunceford And His Orchestra"
    INDEX 00 02:44:10
FILE "18. Linger Awhile.flac" WAVE
    INDEX 01 00:00:00
  TRACK 19 AUDIO
    TITLE "Honest And Truly"
    PERFORMER "Jimmie Lunceford And His Orchestra"
    INDEX 00 02:34:48
FILE "19. Honest And Truly.flac" WAVE
    INDEX 01 00:00:00
  TRACK 20 AUDIO
    TITLE "Slumming On Park Avenue"
    PERFORMER "Jimmie Lunceford And His Orchestra"
    INDEX 00 03:00:38
FILE "20. Slumming On Park Avenue.flac" WAVE
    INDEX 01 00:00:00
  TRACK 21 AUDIO
    TITLE "Coquette"
    PERFORMER "Jimmie Lunceford And His Orchestra"
    INDEX 00 03:02:35
FILE "21. Coquette.flac" WAVE
    INDEX 01 00:00:00
  TRACK 22 AUDIO
    TITLE "The Merry-Go-Round Broke Down"
    PERFORMER "Jimmie Lunceford And His Orchestra"
    INDEX 00 03:11:02
FILE "22. The Merry-Go-Round Broke Down.flac" WAVE
    INDEX 01 00:00:00
  TRACK 23 AUDIO
    TITLE "Ragging The Scale"
    PERFORMER "Jimmie Lunceford And His Orchestra"
    INDEX 00 02:51:67
FILE "23. Ragging The Scale.flac" WAVE
    INDEX 01 00:00:00
No seeders - write personal message to M0p94ok. Any questions - support@pro-jazz.com.
Нет сидеров - пишите в личку M0p94ok. Есть вопросы - support@pro-jazz.com
10:48
233
Нет комментариев. Ваш будет первым!