Поиск

1990 Jimmie Lunceford And His Orchestra - 1934-1935 {The Chronological Classics CC505} [CD]

1990 Jimmie Lunceford And His Orchestra - 1934-1935 {The Chronological Classics CC505} [CD]
Стили:
Дата записи диска:
7 ноября 1934 - 30 сентября 1935
Место записи:
New York City, New York, USA
Дата издания диска:
1990
Издатель (лейбл):
Номер по каталогу:
CC505
Носитель:
CD
Тип рипа:
tracks
Аудиокодек:
FLAC (*.flac)
Битрейт аудио:
lossless
Время звучания:
01:08:15
Наличие сканов:
буклет pdf
Страна-производитель диска (релиза):
France
Релизёр (источник):
M0p94ok
Доп. инфо:

All tracks recorded in New York:
. November 7, 1934 (1, 2)
. December 17, 1934 (3 to 5) 
. December 18, 1934 (6 to 8) 
. May 29, 1935 (9 to 14)
. September 23, 1935 (15 to 18)
. September 30, 1935 (19 to 22) 
 

Лог создания рипа
Exact Audio Copy V0.99 prebeta 5 from 4. May 2009

EAC extraction logfile from 13. April 2010, 18:00

Jimmie Lunceford / 1934-1935

Used drive  : _NEC    DVD_RW ND-3500AG   Adapter: 1  ID: 0

Read mode               : Secure
Utilize accurate stream : Yes
Defeat audio cache      : Yes
Make use of C2 pointers : No

Read offset correction                      : 48
Overread into Lead-In and Lead-Out          : No
Fill up missing offset samples with silence : Yes
Delete leading and trailing silent blocks   : No
Null samples used in CRC calculations       : Yes
Used interface                              : Installed external ASPI interface
Gap handling                                : Appended to previous track

Used output format              : User Defined Encoder
Selected bitrate                : 128 kBit/s
Quality                         : High
Add ID3 tag                     : No
Command line compressor         : C:\Program Files\Exact Audio Copy\Flac\flac.exe
Additional command line options : -8 -V -T "ARTIST=%a" -T "TITLE=%t" -T "ALBUM=%g" -T "DATE=%y" -T "TRACKNUMBER=%n" -T "TOTALTRACKS=%x" -T "GENRE=%m" -T "ALBUM ARTIST=%v" -T "ALBUMARTIST=%v" -T "COMMENT=EAC V0.99 prebeta 5, Secure Mode, Test & Copy, Accurat

TOC of the extracted CD

     Track |   Start  |  Length  | Start sector | End sector
    ---------------------------------------------------------
        1  |  0:00.32 |  3:12.48 |        32    |    14479
        2  |  3:13.05 |  3:14.45 |     14480    |    29074
        3  |  6:27.50 |  3:16.55 |     29075    |    43829
        4  |  9:44.30 |  3:29.25 |     43830    |    59529
        5  | 13:13.55 |  3:05.35 |     59530    |    73439
        6  | 16:19.15 |  3:13.15 |     73440    |    87929
        7  | 19:32.30 |  3:13.57 |     87930    |   102461
        8  | 22:46.12 |  2:46.13 |    102462    |   114924
        9  | 25:32.25 |  3:11.35 |    114925    |   129284
       10  | 28:43.60 |  3:17.72 |    129285    |   144131
       11  | 32:01.57 |  3:22.53 |    144132    |   159334
       12  | 35:24.35 |  3:09.40 |    159335    |   173549
       13  | 38:34.00 |  3:11.12 |    173550    |   187886
       14  | 41:45.12 |  3:06.05 |    187887    |   201841
       15  | 44:51.17 |  3:09.55 |    201842    |   216071
       16  | 48:00.72 |  2:47.50 |    216072    |   228646
       17  | 50:48.47 |  3:04.53 |    228647    |   242499
       18  | 53:53.25 |  3:11.55 |    242500    |   256879
       19  | 57:05.05 |  2:41.15 |    256880    |   268969
       20  | 59:46.20 |  3:08.42 |    268970    |   283111
       21  | 62:54.62 |  2:54.23 |    283112    |   296184
       22  | 65:49.10 |  3:04.22 |    296185    |   310006

Track  1

     Filename C:\Music\01 - Chillun, Get Up.wav

     Pre-gap length  0:00:02.42

     Peak level 82.9 %
     Track quality 100.0 %
     Test CRC F61521E8
     Copy CRC F61521E8
     Accurately ripped (confidence 1)  [0D3B2C90]
     Copy OK

Track  2

     Filename C:\Music\02 - Solitude.wav

     Pre-gap length  0:00:01.46

     Peak level 65.2 %
     Track quality 99.9 %
     Test CRC C1446BD3
     Copy CRC C1446BD3
     Accurately ripped (confidence 1)  [B2996174]
     Copy OK

Track  3

     Filename C:\Music\03 - Rain.wav

     Pre-gap length  0:00:01.37

     Peak level 82.0 %
     Track quality 100.0 %
     Test CRC 2B8D2010
     Copy CRC 2B8D2010
     Accurately ripped (confidence 1)  [4B204E80]
     Copy OK

Track  4

     Filename C:\Music\04 - Since My Best Gal Turned Me Down.wav

     Pre-gap length  0:00:01.60

     Peak level 78.8 %
     Track quality 100.0 %
     Test CRC 5F5C8F25
     Copy CRC 5F5C8F25
     Accurately ripped (confidence 1)  [F12B6C61]
     Copy OK

Track  5

     Filename C:\Music\05 - Jealous.wav

     Pre-gap length  0:00:01.60

     Peak level 75.8 %
     Track quality 100.0 %
     Test CRC 4BF1E12A
     Copy CRC 4BF1E12A
     Accurately ripped (confidence 1)  [8A170074]
     Copy OK

Track  6

     Filename C:\Music\06 - Rhythm Is Our Business.wav

     Pre-gap length  0:00:01.17

     Peak level 82.8 %
     Track quality 100.0 %
     Test CRC 0D7BC4BE
     Copy CRC 0D7BC4BE
     Accurately ripped (confidence 1)  [DB7722C5]
     Copy OK

Track  7

     Filename C:\Music\07 - I'm Walking Through Heaven With You.wav

     Pre-gap length  0:00:01.13

     Peak level 68.8 %
     Track quality 100.0 %
     Test CRC 65C24173
     Copy CRC 65C24173
     Accurately ripped (confidence 1)  [52B78491]
     Copy OK

Track  8

     Filename C:\Music\08 - Shake Your Head (From Side To Side).wav

     Pre-gap length  0:00:01.42

     Peak level 73.7 %
     Track quality 100.0 %
     Test CRC 475A6B87
     Copy CRC 475A6B87
     Accurately ripped (confidence 1)  [CCFF8A80]
     Copy OK

Track  9

     Filename C:\Music\09 - Sleepy Time Gal.wav

     Pre-gap length  0:00:01.33

     Peak level 90.6 %
     Track quality 100.0 %
     Test CRC 237AF4A9
     Copy CRC 237AF4A9
     Accurately ripped (confidence 1)  [1D575821]
     Copy OK

Track 10

     Filename C:\Music\10 - Bird Of Paradise.wav

     Pre-gap length  0:00:01.46

     Peak level 72.3 %
     Track quality 100.0 %
     Test CRC FD7D19AA
     Copy CRC FD7D19AA
     Accurately ripped (confidence 1)  [5E1E7103]
     Copy OK

Track 11

     Filename C:\Music\11 - Rhapsody Junior.wav

     Pre-gap length  0:00:01.40

     Peak level 72.3 %
     Track quality 100.0 %
     Test CRC 5F37720B
     Copy CRC 5F37720B
     Accurately ripped (confidence 1)  [FEAB7A89]
     Copy OK

Track 12

     Filename C:\Music\12 - Runnin' Wild.wav

     Pre-gap length  0:00:01.97

     Peak level 73.1 %
     Track quality 100.0 %
     Test CRC A2EB90EC
     Copy CRC A2EB90EC
     Accurately ripped (confidence 1)  [25EC2F87]
     Copy OK

Track 13

     Filename C:\Music\13 - Four Or Five Times.wav

     Pre-gap length  0:00:01.44

     Peak level 71.4 %
     Track quality 100.0 %
     Test CRC 2CBC6E3A
     Copy CRC 2CBC6E3A
     Accurately ripped (confidence 1)  [39777113]
     Copy OK

Track 14

     Filename C:\Music\14 - (If I Had) Rhythm In My Nursery Rhymes.wav

     Pre-gap length  0:00:00.80

     Peak level 78.3 %
     Track quality 100.0 %
     Test CRC 9C738EC4
     Copy CRC 9C738EC4
     Accurately ripped (confidence 1)  [3C0DC669]
     Copy OK

Track 15

     Filename C:\Music\15 - Babs.wav

     Pre-gap length  0:00:00.89

     Peak level 80.8 %
     Track quality 100.0 %
     Test CRC 1B5C4700
     Copy CRC 1B5C4700
     Accurately ripped (confidence 1)  [71823AF1]
     Copy OK

Track 16

     Filename C:\Music\16 - Swanee River.wav

     Pre-gap length  0:00:00.60

     Peak level 78.8 %
     Track quality 100.0 %
     Test CRC BA5C87B3
     Copy CRC BA5C87B3
     Accurately ripped (confidence 1)  [46DAE6F0]
     Copy OK

Track 17

     Filename C:\Music\17 - Thunder.wav

     Pre-gap length  0:00:01.22

     Peak level 78.8 %
     Track quality 100.0 %
     Test CRC 0C03CDB6
     Copy CRC 0C03CDB6
     Accurately ripped (confidence 1)  [8E71B8F3]
     Copy OK

Track 18

     Filename C:\Music\18 - Oh Boy.wav

     Pre-gap length  0:00:01.30

     Peak level 81.6 %
     Track quality 100.0 %
     Test CRC 61DD98B4
     Copy CRC 61DD98B4
     Accurately ripped (confidence 1)  [26F01375]
     Copy OK

Track 19

     Filename C:\Music\19 - I'll Take The South.wav

     Pre-gap length  0:00:01.24

     Peak level 83.7 %
     Track quality 100.0 %
     Test CRC CE08B18A
     Copy CRC CE08B18A
     Accurately ripped (confidence 1)  [049513C0]
     Copy OK

Track 20

     Filename C:\Music\20 - Avalon.wav

     Pre-gap length  0:00:01.50

     Peak level 75.3 %
     Track quality 100.0 %
     Test CRC 961037FB
     Copy CRC 961037FB
     Accurately ripped (confidence 1)  [3839E678]
     Copy OK

Track 21

     Filename C:\Music\21 - Charmaine.wav

     Pre-gap length  0:00:01.29

     Peak level 79.1 %
     Track quality 100.0 %
     Test CRC B32CA39E
     Copy CRC B32CA39E
     Accurately ripped (confidence 1)  [77720BB8]
     Copy OK

Track 22

     Filename C:\Music\22 - Hittin' The Bottle.wav

     Pre-gap length  0:00:01.20

     Peak level 77.9 %
     Track quality 99.9 %
     Test CRC EFBCF674
     Copy CRC EFBCF674
     Accurately ripped (confidence 1)  [18D4D252]
     Copy OK

All tracks accurately ripped

No errors occurred

End of status report
Содержание индексной карты (.CUE)
REM GENRE Jazz
REM DATE 1990
REM DISCID 5D102516
REM COMMENT "ExactAudioCopy v0.99pb5"
PERFORMER "Jimmie Lunceford And His Orchestra"
TITLE "1934-1935 {Chronological Classics, 505}"
FILE "01. Chillun, Get Up.flac" WAVE
  TRACK 01 AUDIO
    TITLE "Chillun, Get Up"
    PERFORMER "Jimmie Lunceford And His Orchestra"
    PREGAP 00:00:32
    INDEX 01 00:00:00
  TRACK 02 AUDIO
    TITLE "Solitude"
    PERFORMER "Jimmie Lunceford And His Orchestra"
    INDEX 00 03:11:13
FILE "02. Solitude.flac" WAVE
    INDEX 01 00:00:00
  TRACK 03 AUDIO
    TITLE "Rain"
    PERFORMER "Jimmie Lunceford And His Orchestra"
    INDEX 00 03:13:17
FILE "03. Rain.flac" WAVE
    INDEX 01 00:00:00
  TRACK 04 AUDIO
    TITLE "Since My Best Gal Turned Me Down"
    PERFORMER "Jimmie Lunceford And His Orchestra"
    INDEX 00 03:15:10
FILE "04. Since My Best Gal Turned Me Down.flac" WAVE
    INDEX 01 00:00:00
  TRACK 05 AUDIO
    TITLE "Jealous"
    PERFORMER "Jimmie Lunceford And His Orchestra"
    INDEX 00 03:27:55
FILE "05. Jealous.flac" WAVE
    INDEX 01 00:00:00
  TRACK 06 AUDIO
    TITLE "Rhythm Is Our Business"
    PERFORMER "Jimmie Lunceford And His Orchestra"
    INDEX 00 03:04:22
FILE "06. Rhythm Is Our Business.flac" WAVE
    INDEX 01 00:00:00
  TRACK 07 AUDIO
    TITLE "I'm Walking Through Heaven With You"
    PERFORMER "Jimmie Lunceford And His Orchestra"
    INDEX 00 03:12:05
FILE "07. I'm Walking Through Heaven With You.flac" WAVE
    INDEX 01 00:00:00
  TRACK 08 AUDIO
    TITLE "Shake Your Head (From Side To Side)"
    PERFORMER "Jimmie Lunceford And His Orchestra"
    INDEX 00 03:12:25
FILE "08. Shake Your Head (From Side To Side).flac" WAVE
    INDEX 01 00:00:00
  TRACK 09 AUDIO
    TITLE "Sleepy Time Gal"
    PERFORMER "Jimmie Lunceford And His Orchestra"
    INDEX 00 02:44:63
FILE "09. Sleepy Time Gal.flac" WAVE
    INDEX 01 00:00:00
  TRACK 10 AUDIO
    TITLE "Bird Of Paradise"
    PERFORMER "Jimmie Lunceford And His Orchestra"
    INDEX 00 03:10:00
FILE "10. Bird Of Paradise.flac" WAVE
    INDEX 01 00:00:00
  TRACK 11 AUDIO
    TITLE "Rhapsody Junior"
    PERFORMER "Jimmie Lunceford And His Orchestra"
    INDEX 00 03:16:42
FILE "11. Rhapsody Junior.flac" WAVE
    INDEX 01 00:00:00
  TRACK 12 AUDIO
    TITLE "Runnin' Wild"
    PERFORMER "Jimmie Lunceford And His Orchestra"
    INDEX 00 03:20:55
FILE "12. Runnin' Wild.flac" WAVE
    INDEX 01 00:00:00
  TRACK 13 AUDIO
    TITLE "Four Or Five Times"
    PERFORMER "Jimmie Lunceford And His Orchestra"
    INDEX 00 03:08:07
FILE "13. Four Or Five Times.flac" WAVE
    INDEX 01 00:00:00
  TRACK 14 AUDIO
    TITLE "(If I Had) Rhythm In My Nursery Rhymes"
    PERFORMER "Jimmie Lunceford And His Orchestra"
    INDEX 00 03:10:27
FILE "14. (If I Had) Rhythm In My Nursery Rhymes.flac" WAVE
    INDEX 01 00:00:00
  TRACK 15 AUDIO
    TITLE "Babs"
    PERFORMER "Jimmie Lunceford And His Orchestra"
    INDEX 00 03:05:13
FILE "15. Babs.flac" WAVE
    INDEX 01 00:00:00
  TRACK 16 AUDIO
    TITLE "Swanee River"
    PERFORMER "Jimmie Lunceford And His Orchestra"
    INDEX 00 03:09:10
FILE "16. Swanee River.flac" WAVE
    INDEX 01 00:00:00
  TRACK 17 AUDIO
    TITLE "Thunder"
    PERFORMER "Jimmie Lunceford And His Orchestra"
    INDEX 00 02:46:33
FILE "17. Thunder.flac" WAVE
    INDEX 01 00:00:00
  TRACK 18 AUDIO
    TITLE "Oh Boy"
    PERFORMER "Jimmie Lunceford And His Orchestra"
    INDEX 00 03:03:30
FILE "18. Oh Boy.flac" WAVE
    INDEX 01 00:00:00
  TRACK 19 AUDIO
    TITLE "(You Take The East, Take The West, Take The North) I'll Take The South"
    PERFORMER "Jimmie Lunceford And His Orchestra"
    INDEX 00 03:10:37
FILE "19. I'll Take The South.flac" WAVE
    INDEX 01 00:00:00
  TRACK 20 AUDIO
    TITLE "Avalon"
    PERFORMER "Jimmie Lunceford And His Orchestra"
    INDEX 00 02:39:52
FILE "20. Avalon.flac" WAVE
    INDEX 01 00:00:00
  TRACK 21 AUDIO
    TITLE "Charmaine"
    PERFORMER "Jimmie Lunceford And His Orchestra"
    INDEX 00 03:07:20
FILE "21. Charmaine.flac" WAVE
    INDEX 01 00:00:00
  TRACK 22 AUDIO
    TITLE "Hittin' The Bottle"
    PERFORMER "Jimmie Lunceford And His Orchestra"
    INDEX 00 02:53:08
FILE "22. Hittin' The Bottle.flac" WAVE
    INDEX 01 00:00:00
No seeders - write personal message to M0p94ok. Any questions - support@pro-jazz.com.
Нет сидеров - пишите в личку M0p94ok. Есть вопросы - support@pro-jazz.com
12:39
230
Нет комментариев. Ваш будет первым!