Поиск

1990 Fletcher Henderson and His Orchestra - 1937-1938 {The Chronological Classics CC519} [CD]

1990 Fletcher Henderson and His Orchestra - 1937-1938 {The Chronological Classics CC519} [CD]
Стили:
Издатель (лейбл):
Номер по каталогу:
CC519
Доп. инфо:

Лейбл: Classics Records
Год выпуска : 1990
Аудио кодек: FLAC
Тип рипа: tracks+.cue
Битрейт аудио: lossless
Продолжительность: 01:10:17
Признательность за рип: Mazeppa

Лог создания рипа
Exact Audio Copy V0.99 prebeta 4 from 23. January 2008
EAC extraction logfile from 13. January 2009, 19:28
Fletcher Henderson / 1937-1938
Used drive  : TSSTcorpCDDVDW SH-S223Q   Adapter: 2  ID: 1
Read mode               : Secure
Utilize accurate stream : Yes
Defeat audio cache      : Yes
Make use of C2 pointers : No
Read offset correction                      : 6
Overread into Lead-In and Lead-Out          : No
Fill up missing offset samples with silence : Yes
Delete leading and trailing silent blocks   : No
Null samples used in CRC calculations       : Yes
Used interface                              : Installed external ASPI interface
Gap handling                                : Appended to previous track
Used output format              : User Defined Encoder
Selected bitrate                : 320 kBit/s
Quality                         : High
Add ID3 tag                     : No
Command line compressor         : C:\Program Files (x86)\Exact Audio Copy\flac.exe
Additional command line options : -8 -V -T "ARTIST=%a" -T "TITLE=%t" -T "ALBUM=%g" -T "DATE=%y" -T "TRACKNUMBER=%n" -T "GENRE=%m" -T "COMMENT=EAC FLAC -8" %s
TOC of the extracted CD
     Track |   Start  |  Length  | Start sector | End sector
    ---------------------------------------------------------
        1  |  0:00.33 |  2:54.10 |        33    |    13092
        2  |  2:54.43 |  2:30.20 |     13093    |    24362
        3  |  5:24.63 |  2:41.57 |     24363    |    36494
        4  |  8:06.45 |  3:09.00 |     36495    |    50669
        5  | 11:15.45 |  2:34.28 |     50670    |    62247
        6  | 13:49.73 |  3:01.00 |     62248    |    75822
        7  | 16:50.73 |  2:24.07 |     75823    |    86629
        8  | 19:15.05 |  3:02.73 |     86630    |   100352
        9  | 22:18.03 |  2:47.55 |    100353    |   112932
       10  | 25:05.58 |  2:43.15 |    112933    |   125172
       11  | 27:48.73 |  3:04.72 |    125173    |   139044
       12  | 30:53.70 |  2:27.00 |    139045    |   150069
       13  | 33:20.70 |  3:15.68 |    150070    |   164762
       14  | 36:36.63 |  2:37.55 |    164763    |   176592
       15  | 39:14.43 |  3:04.32 |    176593    |   190424
       16  | 42:19.00 |  2:48.20 |    190425    |   203044
       17  | 45:07.20 |  2:44.20 |    203045    |   215364
       18  | 47:51.40 |  3:07.10 |    215365    |   229399
       19  | 50:58.50 |  3:03.63 |    229400    |   243187
       20  | 54:02.38 |  2:31.35 |    243188    |   254547
       21  | 56:33.73 |  2:52.70 |    254548    |   267517
       22  | 59:26.68 |  2:39.52 |    267518    |   279494
       23  | 62:06.45 |  2:59.40 |    279495    |   292959
       24  | 65:06.10 |  2:38.63 |    292960    |   304872
       25  | 67:44.73 |  2:44.35 |    304873    |   317207
Track  1
     Filename C:\Audio\Fletcher Henderson - 1937-1938\01 - It's Wearin' Me Down.wav
     Pre-gap length  0:00:02.44
     Peak level 80.4 %
     Track quality 100.0 %
     Test CRC 6E10EB15
     Copy CRC 6E10EB15
     Accurately ripped (confidence 2)  [958997C0]
     Copy OK
Track  2
     Filename C:\Audio\Fletcher Henderson - 1937-1938\02 - Slumming On Park Avenue.wav
     Pre-gap length  0:00:02.60
     Peak level 100.0 %
     Track quality 100.0 %
     Test CRC B2D2E9D3
     Copy CRC B2D2E9D3
     Accurately ripped (confidence 2)  [EDDFF826]
     Copy OK
Track  3
     Filename C:\Audio\Fletcher Henderson - 1937-1938\03 - Rhythm Of The Tambourine.wav
     Pre-gap length  0:00:02.13
     Peak level 88.3 %
     Track quality 100.0 %
     Test CRC A1103587
     Copy CRC A1103587
     Accurately ripped (confidence 2)  [D3C12C44]
     Copy OK
Track  4
     Filename C:\Audio\Fletcher Henderson - 1937-1938\04 - Stampede.wav
     Pre-gap length  0:00:02.20
     Peak level 97.2 %
     Track quality 100.0 %
     Test CRC 289AA573
     Copy CRC 289AA573
     Accurately ripped (confidence 2)  [9505C574]
     Copy OK
Track  5
     Filename C:\Audio\Fletcher Henderson - 1937-1938\05 - Back In Your Own Backyard.wav
     Pre-gap length  0:00:02.46
     Peak level 81.5 %
     Track quality 99.9 %
     Test CRC 3D08E5F0
     Copy CRC 3D08E5F0
     Accurately ripped (confidence 2)  [66559C8D]
     Copy OK
Track  6
     Filename C:\Audio\Fletcher Henderson - 1937-1938\06 - Rose Room (In Sunny Roseland).wav
     Pre-gap length  0:00:02.60
     Peak level 91.4 %
     Track quality 99.9 %
     Test CRC 8B71C772
     Copy CRC 8B71C772
     Accurately ripped (confidence 2)  [72BCF357]
     Copy OK
Track  7
     Filename C:\Audio\Fletcher Henderson - 1937-1938\07 - Great Caesar's Ghost.wav
     Pre-gap length  0:00:02.84
     Peak level 97.6 %
     Track quality 99.9 %
     Test CRC DB9CF62D
     Copy CRC DB9CF62D
     Accurately ripped (confidence 2)  [F4177587]
     Copy OK
Track  8
     Filename C:\Audio\Fletcher Henderson - 1937-1938\08 - If You Ever Should Leave.wav
     Pre-gap length  0:00:02.62
     Peak level 78.2 %
     Track quality 99.9 %
     Test CRC DBD54176
     Copy CRC DBD54176
     Accurately ripped (confidence 2)  [6940D954]
     Copy OK
Track  9
     Filename C:\Audio\Fletcher Henderson - 1937-1938\09 - Posin'.wav
     Pre-gap length  0:00:02.46
     Peak level 88.5 %
     Track quality 100.0 %
     Test CRC D6784830
     Copy CRC D6784830
     Accurately ripped (confidence 2)  [39216E1A]
     Copy OK
Track 10
     Filename C:\Audio\Fletcher Henderson - 1937-1938\10 - All God's Chillun Got Rhythm.wav
     Pre-gap length  0:00:02.50
     Peak level 85.1 %
     Track quality 100.0 %
     Test CRC E73AA1AF
     Copy CRC E73AA1AF
     Accurately ripped (confidence 2)  [09DE33C1]
     Copy OK
Track 11
     Filename C:\Audio\Fletcher Henderson - 1937-1938\11 - Chris and His Gang.wav
     Pre-gap length  0:00:02.10
     Peak level 86.7 %
     Track quality 99.9 %
     Test CRC CAE03C94
     Copy CRC CAE03C94
     Accurately ripped (confidence 2)  [5E8B54B6]
     Copy OK
Track 12
     Filename C:\Audio\Fletcher Henderson - 1937-1938\12 - Let 'Er Go.wav
     Pre-gap length  0:00:02.49
     Peak level 82.1 %
     Track quality 100.0 %
     Test CRC 347390B7
     Copy CRC 347390B7
     Accurately ripped (confidence 2)  [BB8B48D9]
     Copy OK
Track 13
     Filename C:\Audio\Fletcher Henderson - 1937-1938\13 - Worried Over You.wav
     Pre-gap length  0:00:02.33
     Peak level 87.2 %
     Track quality 99.9 %
     Test CRC 43643845
     Copy CRC 43643845
     Accurately ripped (confidence 2)  [D4FB36EE]
     Copy OK
Track 14
     Filename C:\Audio\Fletcher Henderson - 1937-1938\14 - What's Your Story (What's Your Jive).wav
     Pre-gap length  0:00:02.77
     Peak level 71.3 %
     Track quality 99.9 %
     Test CRC CF26609A
     Copy CRC CF26609A
     Accurately ripped (confidence 2)  [3C470D81]
     Copy OK
Track 15
     Filename C:\Audio\Fletcher Henderson - 1937-1938\15 - Trees.wav
     Pre-gap length  0:00:02.57
     Peak level 92.8 %
     Track quality 100.0 %
     Test CRC D3200BE5
     Copy CRC D3200BE5
     Accurately ripped (confidence 2)  [1D94B242]
     Copy OK
Track 16
     Filename C:\Audio\Fletcher Henderson - 1937-1938\16 - If It's The Last Thing I Do.wav
     Pre-gap length  0:00:02.62
     Peak level 69.2 %
     Track quality 100.0 %
     Test CRC 1359DFEA
     Copy CRC 1359DFEA
     Accurately ripped (confidence 2)  [80D5B7AD]
     Copy OK
Track 17
     Filename C:\Audio\Fletcher Henderson - 1937-1938\17 - Sing Your Sinners.wav
     Pre-gap length  0:00:02.76
     Peak level 69.6 %
     Track quality 100.0 %
     Test CRC 65721333
     Copy CRC 65721333
     Accurately ripped (confidence 2)  [BD2FF4E6]
     Copy OK
Track 18
     Filename C:\Audio\Fletcher Henderson - 1937-1938\18 - You're In Love With Love.wav
     Pre-gap length  0:00:02.73
     Peak level 70.4 %
     Track quality 100.0 %
     Test CRC D99D2215
     Copy CRC D99D2215
     Accurately ripped (confidence 2)  [FE816146]
     Copy OK
Track 19
     Filename C:\Audio\Fletcher Henderson - 1937-1938\19 - Stealin' Apples.wav
     Pre-gap length  0:00:02.42
     Peak level 93.3 %
     Track quality 100.0 %
     Test CRC FF2B01A7
     Copy CRC FF2B01A7
     Track not present in AccurateRip database
     Copy OK
Track 20
     Filename C:\Audio\Fletcher Henderson - 1937-1938\20 - Don't Let The Rhythm Go To Your Head.wav
     Pre-gap length  0:00:02.50
     Peak level 65.2 %
     Track quality 100.0 %
     Test CRC BC600C78
     Copy CRC BC600C78
     Accurately ripped (confidence 2)  [1B0C5AA8]
     Copy OK
Track 21
     Filename C:\Audio\Fletcher Henderson - 1937-1938\21 - (I've Been) Saving Myself For You.wav
     Pre-gap length  0:00:02.57
     Peak level 78.5 %
     Track quality 100.0 %
     Test CRC A2F4E739
     Copy CRC A2F4E739
     Accurately ripped (confidence 2)  [FC275712]
     Copy OK
Track 22
     Filename C:\Audio\Fletcher Henderson - 1937-1938\22 - There's Rain In My Eyes.wav
     Pre-gap length  0:00:02.46
     Peak level 75.5 %
     Track quality 99.8 %
     Test CRC 69B38730
     Copy CRC 69B38730
     Accurately ripped (confidence 2)  [9E507ED8]
     Copy OK
Track 23
     Filename C:\Audio\Fletcher Henderson - 1937-1938\23 - What Do You Hear From The Mob In Scotland .wav
     Pre-gap length  0:00:02.22
     Peak level 75.7 %
     Track quality 100.0 %
     Test CRC C56773AB
     Copy CRC C56773AB
     Accurately ripped (confidence 2)  [7F5BCB18]
     Copy OK
Track 24
     Filename C:\Audio\Fletcher Henderson - 1937-1938\24 - It's The Litlle Things That Count.wav
     Pre-gap length  0:00:01.93
     Peak level 61.4 %
     Track quality 100.0 %
     Test CRC 8AAE7EC3
     Copy CRC 8AAE7EC3
     Accurately ripped (confidence 2)  [64BDF1D2]
     Copy OK
Track 25
     Filename C:\Audio\Fletcher Henderson - 1937-1938\25 - Moten Stomp.wav
     Pre-gap length  0:00:02.30
     Peak level 82.3 %
     Track quality 100.0 %
     Test CRC 688D223D
     Copy CRC 688D223D
     Track not present in AccurateRip database
     Copy OK
23 track(s) accurately ripped
 2 track(s) not present in the AccurateRip database
Some tracks could not be verified as accurate
No errors occurred
End of status report
No seeders - write personal message to M0p94ok. Any questions - support@pro-jazz.com.
Нет сидеров - пишите в личку M0p94ok. Есть вопросы - support@pro-jazz.com
10:53
244
Нет комментариев. Ваш будет первым!