Поиск

1990 Ella Fitzgerald - 1939 {The Chronological Classics CC525} [CD]

1990 Ella Fitzgerald - 1939 {The Chronological Classics CC525} [CD]
Издатель (лейбл):
Номер по каталогу:
CC525
Доп. инфо:

Год выпуска диска: 1990
Производитель диска: France
Аудио кодек: FLAC
Тип рипа: tracks+.cue
Битрейт аудио: lossless
Продолжительность: 67:29

Лог создания рипа
EAC extraction logfile from 11. January 2009, 5:23 for CD
Ella Fitzgerald / 1939
Used drive : Optiarc DVD RW AD-7590A Adapter: 3 ID: 0
Read mode : Secure with NO C2, accurate stream, disable cache
Read offset correction : 48
Overread into Lead-In and Lead-Out : No
Used output format : C:\Program Files\Exact Audio Copy\Flac\flac.exe (User Defined Encoder)
192 kBit/s
Additional command line options : -8 -A tukey(0.25) -A gauss(0.1875) -b 4096 -V -T "artist=%a" -T "title=%t" -T "album=%g" -T "date=%y" -T "tracknumber=%n" -T "genre=%m" %s --sector-align
Other options :
Fill up missing offset samples with silence : Yes
Delete leading and trailing silent blocks : No
Native Win32 interface for Win NT & 2000
Track 1
Filename D:\flac\Ella Fitzgerald - 1939\01 - 'Tain't What You Do.wav
Pre-gap length 0:00:02.33
Peak level 89.9 %
Track quality 100.0 %
Test CRC 1871C627
Copy CRC 1871C627
Copy OK
Track 2
Filename D:\flac\Ella Fitzgerald - 1939\02 - One Side Of Me.wav
Pre-gap length 0:00:01.57
Peak level 73.2 %
Track quality 100.0 %
Test CRC 061FB0AD
Copy CRC 061FB0AD
Copy OK
Track 3
Filename D:\flac\Ella Fitzgerald - 1939\03 - My Heart Belongs To Daddy.wav
Pre-gap length 0:00:01.48
Peak level 95.9 %
Track quality 100.0 %
Test CRC EEFD95D4
Copy CRC EEFD95D4
Copy OK
Track 4
Filename D:\flac\Ella Fitzgerald - 1939\04 - Once Is Enough For Me.wav
Pre-gap length 0:00:01.22
Peak level 74.7 %
Track quality 99.9 %
Test CRC 9819609E
Copy CRC 9819609E
Copy OK
Track 5
Filename D:\flac\Ella Fitzgerald - 1939\05 - I Had To Live And Learn.wav
Pre-gap length 0:00:02.42
Peak level 79.5 %
Track quality 100.0 %
Test CRC 75E71C41
Copy CRC 75E71C41
Copy OK
Track 6
Filename D:\flac\Ella Fitzgerald - 1939\06 - Sugar Pie.wav
Pre-gap length 0:00:01.73
Peak level 99.9 %
Track quality 100.0 %
Test CRC 1A9FC34F
Copy CRC 1A9FC34F
Copy OK
Track 7
Filename D:\flac\Ella Fitzgerald - 1939\07 - It's Slumbertime Along The Swanee.wav
Pre-gap length 0:00:01.63
Peak level 95.7 %
Track quality 100.0 %
Test CRC 14F3B358
Copy CRC 14F3B358
Copy OK
Track 8
Filename D:\flac\Ella Fitzgerald - 1939\08 - I'm Up A Tree.wav
Pre-gap length 0:00:01.22
Peak level 84.9 %
Track quality 100.0 %
Test CRC E5804A2B
Copy CRC E5804A2B
Copy OK
Track 9
Filename D:\flac\Ella Fitzgerald - 1939\09 - Chew-Chew-Chew (Your Bubble Gum).wav
Pre-gap length 0:00:02.50
Peak level 86.2 %
Track quality 100.0 %
Test CRC A9E486D4
Copy CRC A9E486D4
Copy OK
Track 10
Filename D:\flac\Ella Fitzgerald - 1939\10 - Don't Worry About Me.wav
Pre-gap length 0:00:02.05
Peak level 95.1 %
Track quality 100.0 %
Test CRC 5FF0D1CA
Copy CRC 5FF0D1CA
Copy OK
Track 11
Filename D:\flac\Ella Fitzgerald - 1939\11 - If Anything Hapened To You.wav
Pre-gap length 0:00:02.25
Peak level 89.2 %
Track quality 100.0 %
Test CRC 7A19A58B
Copy CRC 7A19A58B
Copy OK
Track 12
Filename D:\flac\Ella Fitzgerald - 1939\12 - If That's What You're Thinking, You're Wrong.wav
Pre-gap length 0:00:02.50
Peak level 89.3 %
Track quality 100.0 %
Test CRC 936E3BB7
Copy CRC 936E3BB7
Copy OK
Track 13
Filename D:\flac\Ella Fitzgerald - 1939\13 - If You Ever Change Your Mind.wav
Pre-gap length 0:00:01.08
Peak level 100.0 %
Track quality 100.0 %
Test CRC 52581E90
Copy CRC 52581E90
Copy OK
Track 14
Filename D:\flac\Ella Fitzgerald - 1939\14 - Have Mercy.wav
Pre-gap length 0:00:01.05
Peak level 91.0 %
Track quality 100.0 %
Test CRC 9BDC6193
Copy CRC 9BDC6193
Copy OK
Track 15
Filename D:\flac\Ella Fitzgerald - 1939\15 - Little White Lies.wav
Pre-gap length 0:00:01.23
Peak level 78.7 %
Track quality 100.0 %
Test CRC 3A64D74A
Copy CRC 3A64D74A
Copy OK
Track 16
Filename D:\flac\Ella Fitzgerald - 1939\16 - Coochi-Coochi-Coo.wav
Pre-gap length 0:00:01.00
Peak level 79.0 %
Track quality 100.0 %
Test CRC 82D03785
Copy CRC 82D03785
Copy OK
Track 17
Filename D:\flac\Ella Fitzgerald - 1939\17 - That Was My Heart.wav
Pre-gap length 0:00:01.40
Peak level 83.8 %
Track quality 100.0 %
Test CRC 111215D8
Copy CRC 111215D8
Copy OK
Track 18
Filename D:\flac\Ella Fitzgerald - 1939\18 - Betcha Nickel.wav
Pre-gap length 0:00:01.10
Peak level 95.2 %
Track quality 99.9 %
Test CRC 4AD9DFB0
Copy CRC 4AD9DFB0
Copy OK
Track 19
Filename D:\flac\Ella Fitzgerald - 1939\19 - Stairway To The Stars.wav
Pre-gap length 0:00:01.02
Peak level 91.8 %
Track quality 99.9 %
Test CRC 61706B15
Copy CRC 61706B15
Copy OK
Track 20
Filename D:\flac\Ella Fitzgerald - 1939\20 - I Want The Waiter (With The Water).wav
Pre-gap length 0:00:01.27
Peak level 84.9 %
Track quality 99.9 %
Test CRC C23C757B
Copy CRC A7E13CB9
Copy OK
Track 21
Filename D:\flac\Ella Fitzgerald - 1939\21 - That's All, Brother.wav
Pre-gap length 0:00:01.27
Peak level 91.0 %
Track quality 100.0 %
Test CRC FA18A503
Copy CRC FA18A503
Copy OK
Track 22
Filename D:\flac\Ella Fitzgerald - 1939\22 - Out Of Nowhere.wav
Pre-gap length 0:00:01.40
Peak level 90.4 %
Track quality 100.0 %
Test CRC 73EA91C7
Copy CRC 73EA91C7
Copy OK
No errors occured
End of status report
------------------------------------------------------------
EAC extraction logfile from 11. January 2009, 5:27 for CD
Ella Fitzgerald / 1939
Used drive : Optiarc DVD RW AD-7590A Adapter: 3 ID: 0
Read mode : Secure with NO C2, accurate stream, disable cache
Read offset correction : 48
Overread into Lead-In and Lead-Out : No
Used output format : C:\Program Files\Exact Audio Copy\Flac\flac.exe (User Defined Encoder)
192 kBit/s
Additional command line options : -8 -A tukey(0.25) -A gauss(0.1875) -b 4096 -V -T "artist=%a" -T "title=%t" -T "album=%g" -T "date=%y" -T "tracknumber=%n" -T "genre=%m" %s --sector-align
Other options :
Fill up missing offset samples with silence : Yes
Delete leading and trailing silent blocks : No
Native Win32 interface for Win NT & 2000
Track 20
Filename D:\flac\Ella Fitzgerald - 1939\20 - I Want The Waiter (With The Water).wav
Pre-gap length 0:00:01.27
Peak level 84.9 %
Track quality 99.9 %
Test CRC A7E13CB9
Copy CRC A7E13CB9
Copy OK
No errors occured
End of status report
No seeders - write personal message to M0p94ok. Any questions - support@pro-jazz.com.
Нет сидеров - пишите в личку M0p94ok. Есть вопросы - support@pro-jazz.com
05:35
223
Нет комментариев. Ваш будет первым!