Поиск

1990 Ella Fitzgerald - 1938-1939 {The Chronological Classics CC518} [CD]

1990 Ella Fitzgerald - 1938-1939 {The Chronological Classics CC518} [CD]
Стили:
Издатель (лейбл):
Номер по каталогу:
CC518
Доп. инфо:

Год выпуска диска: 1990
Производитель диска: France
Аудио кодек: FLAC
Тип рипа: tracks+.cue
Битрейт аудио: lossless
Продолжительность: 68:16

Лог создания рипа
EAC extraction logfile from 11. January 2009, 4:05 for CD
Ella Fitzgerald / 1938-1939
Used drive : Optiarc DVD RW AD-7590A Adapter: 3 ID: 0
Read mode : Secure with NO C2, accurate stream, disable cache
Read offset correction : 48
Overread into Lead-In and Lead-Out : No
Used output format : C:\Program Files\Exact Audio Copy\Flac\flac.exe (User Defined Encoder)
192 kBit/s
Additional command line options : -8 -A tukey(0.25) -A gauss(0.1875) -b 4096 -V -T "artist=%a" -T "title=%t" -T "album=%g" -T "date=%y" -T "tracknumber=%n" -T "genre=%m" %s --sector-align
Other options :
Fill up missing offset samples with silence : Yes
Delete leading and trailing silent blocks : No
Native Win32 interface for Win NT & 2000
Track 1
Filename D:\flac\Ella Fitzgerald - 1938-1939\01 - Heart of mine.wav
Pre-gap length 0:00:02.32
Peak level 100.0 %
Track quality 100.0 %
Test CRC C560454A
Copy CRC C560454A
Copy OK
Track 2
Filename D:\flac\Ella Fitzgerald - 1938-1939\02 - I'm just A jitterburg.wav
Pre-gap length 0:00:01.63
Peak level 94.3 %
Track quality 100.0 %
Test CRC 6D80D7CF
Copy CRC 6D80D7CF
Copy OK
Track 3
Filename D:\flac\Ella Fitzgerald - 1938-1939\03 - This Time It's Real.wav
Pre-gap length 0:00:02.03
Peak level 99.8 %
Track quality 100.0 %
Test CRC 95E2CB11
Copy CRC 95E2CB11
Copy OK
Track 4
Filename D:\flac\Ella Fitzgerald - 1938-1939\04 - (Oh, Oh) What Do You Know About Love.wav
Pre-gap length 0:00:02.03
Peak level 100.0 %
Track quality 100.0 %
Test CRC B1F92D92
Copy CRC B1F92D92
Copy OK
Track 5
Filename D:\flac\Ella Fitzgerald - 1938-1939\05 - You Can't Be Mine.wav
Pre-gap length 0:00:01.67
Peak level 92.0 %
Track quality 100.0 %
Test CRC A4BEF4F6
Copy CRC A4BEF4F6
Copy OK
Track 6
Filename D:\flac\Ella Fitzgerald - 1938-1939\06 - We Can't Go On This Way.wav
Pre-gap length 0:00:01.67
Peak level 83.3 %
Track quality 100.0 %
Test CRC EE352F0E
Copy CRC EE352F0E
Copy OK
Track 7
Filename D:\flac\Ella Fitzgerald - 1938-1939\07 - Saving Myself For You.wav
Pre-gap length 0:00:01.48
Peak level 81.8 %
Track quality 100.0 %
Test CRC E1FF86F2
Copy CRC E1FF86F2
Copy OK
Track 8
Filename D:\flac\Ella Fitzgerald - 1938-1939\08 - If You Only Knew.wav
Pre-gap length 0:00:01.32
Peak level 70.6 %
Track quality 97.0 %
Test CRC 90E9ABD5
Copy CRC 90E9ABD5
Copy OK
Track 9
Filename D:\flac\Ella Fitzgerald - 1938-1939\09 - Pack Up Your sins And Go To The Devil.wav
Pre-gap length 0:00:01.58
Peak level 83.2 %
Track quality 99.9 %
Test CRC 17E94B3C
Copy CRC 17E94B3C
Copy OK
Track 10
Filename D:\flac\Ella Fitzgerald - 1938-1939\10 - MacPherson Is Rehearsin'.wav
Pre-gap length 0:00:01.67
Peak level 100.0 %
Track quality 100.0 %
Test CRC 0E0AEA85
Copy CRC 0E0AEA85
Copy OK
Track 11
Filename D:\flac\Ella Fitzgerald - 1938-1939\11 - Everybody Step.wav
Pre-gap length 0:00:01.38
Peak level 98.8 %
Track quality 99.9 %
Test CRC BDAE25F3
Copy CRC BDAE25F3
Copy OK
Track 12
Filename D:\flac\Ella Fitzgerald - 1938-1939\12 - Ella.wav
Pre-gap length 0:00:01.58
Peak level 80.2 %
Track quality 99.9 %
Test CRC DDF4CC91
Copy CRC DDF4CC91
Copy OK
Track 13
Filename D:\flac\Ella Fitzgerald - 1938-1939\13 - Wacky dust.wav
Pre-gap length 0:00:01.28
Peak level 91.6 %
Track quality 100.0 %
Test CRC C12B943C
Copy CRC C12B943C
Copy OK
Track 14
Filename D:\flac\Ella Fitzgerald - 1938-1939\14 - Gotta Pebble In My Shoe.wav
Pre-gap length 0:00:02.15
Peak level 95.5 %
Track quality 100.0 %
Test CRC 6B68C769
Copy CRC 6B68C769
Copy OK
Track 15
Filename D:\flac\Ella Fitzgerald - 1938-1939\15 - I Can't Stop Loving You.wav
Pre-gap length 0:00:02.07
Peak level 74.8 %
Track quality 100.0 %
Test CRC 4036A87D
Copy CRC 4036A87D
Copy OK
Track 16
Filename D:\flac\Ella Fitzgerald - 1938-1939\16 - Strictly From Dixie.wav
Pre-gap length 0:00:01.53
Peak level 88.7 %
Track quality 100.0 %
Test CRC 5EFBCF73
Copy CRC 5EFBCF73
Copy OK
Track 17
Filename D:\flac\Ella Fitzgerald - 1938-1939\17 - Woe Is Me.wav
Pre-gap length 0:00:01.55
Peak level 75.1 %
Track quality 99.9 %
Test CRC 3B571F3E
Copy CRC 3B571F3E
Copy OK
Track 18
Filename D:\flac\Ella Fitzgerald - 1938-1939\18 - I Let A Tear Fall In The River.wav
Pre-gap length 0:00:01.63
Peak level 70.8 %
Track quality 100.0 %
Test CRC 28A7165E
Copy CRC 28A7165E
Copy OK
Track 19
Filename D:\flac\Ella Fitzgerald - 1938-1939\19 - F.D.R Jones.wav
Pre-gap length 0:00:02.00
Peak level 97.3 %
Track quality 99.9 %
Test CRC 5478E9C0
Copy CRC 5478E9C0
Copy OK
Track 20
Filename D:\flac\Ella Fitzgerald - 1938-1939\20 - I Love Each Move You Make.wav
Pre-gap length 0:00:01.70
Peak level 92.9 %
Track quality 99.9 %
Test CRC 83B298A1
Copy CRC CA65EA2E
Copy OK
Track 21
Filename D:\flac\Ella Fitzgerald - 1938-1939\21 - It's foxy.wav
Pre-gap length 0:00:01.58
Peak level 92.0 %
Track quality 100.0 %
Test CRC 10C14430
Copy CRC 10C14430
Copy OK
Track 22
Filename D:\flac\Ella Fitzgerald - 1938-1939\22 - I Found My Yellow Basket.wav
Pre-gap length 0:00:01.67
Peak level 90.3 %
Track quality 100.0 %
Test CRC 5D399163
Copy CRC 5D399163
Copy OK
Track 23
Filename D:\flac\Ella Fitzgerald - 1938-1939\23 - Undecided.wav
Pre-gap length 0:00:01.65
Peak level 88.4 %
Track quality 99.9 %
Test CRC 5EE42692
Copy CRC 5EE42692
Copy OK
No errors occured
End of status report
No seeders - write personal message to M0p94ok. Any questions - support@pro-jazz.com.
Нет сидеров - пишите в личку M0p94ok. Есть вопросы - support@pro-jazz.com
05:32
197
Нет комментариев. Ваш будет первым!