Поиск

1990 Ella Fitzgerald - 1935-1937 {The Chronological Classics CC500} [CD]

1990 Ella Fitzgerald - 1935-1937 {The Chronological Classics CC500} [CD]
Издатель (лейбл):
Номер по каталогу:
CC500
Доп. инфо:

Год выпуска диска: 1990
Производитель диска: France
Аудио кодек: FLAC
Тип рипа: tracks+.cue
Битрейт аудио: lossless
Продолжительность: 71:32

Лог создания рипа
EAC extraction logfile from 9. January 2009, 14:48 for CD
Ella Fitzgerald / 1935-1937
Used drive : Optiarc DVD RW AD-7590A Adapter: 3 ID: 0
Read mode : Secure with NO C2, accurate stream, disable cache
Read offset correction : 48
Overread into Lead-In and Lead-Out : No
Used output format : C:\Program Files\Exact Audio Copy\Flac\flac.exe (User Defined Encoder)
192 kBit/s
Additional command line options : -8 -A tukey(0.25) -A gauss(0.1875) -b 4096 -V -T "artist=%a" -T "title=%t" -T "album=%g" -T "date=%y" -T "tracknumber=%n" -T "genre=%m" %s --sector-align
Other options :
Fill up missing offset samples with silence : Yes
Delete leading and trailing silent blocks : No
Native Win32 interface for Win NT & 2000
Track 1
Filename D:\flac\Ella Fitzgerald\1935-1937\01 - I'll Chase The Blues Away.wav
Pre-gap length 0:00:02.33
Peak level 98.3 %
Track quality 99.9 %
Test CRC 83901784
Copy CRC 83901784
Copy OK
Track 2
Filename D:\flac\Ella Fitzgerald\1935-1937\02 - Love And Kisses.wav
Pre-gap length 0:00:01.09
Peak level 97.7 %
Track quality 100.0 %
Test CRC CF718C68
Copy CRC CF718C68
Copy OK
Track 3
Filename D:\flac\Ella Fitzgerald\1935-1937\03 - Rythm And Romance.wav
Pre-gap length 0:00:00.36
Peak level 100.0 %
Track quality 100.0 %
Test CRC EA418BCA
Copy CRC EA418BCA
Copy OK
Track 4
Filename D:\flac\Ella Fitzgerald\1935-1937\04 - I'll Chase The Blues Away #2.wav
Pre-gap length 0:00:01.09
Peak level 86.8 %
Track quality 100.0 %
Test CRC A2298F3C
Copy CRC A2298F3C
Copy OK
Track 5
Filename D:\flac\Ella Fitzgerald\1935-1937\05 - My Melancholy Baby.wav
Pre-gap length 0:00:00.66
Peak level 86.9 %
Track quality 100.0 %
Test CRC A59A0E1F
Copy CRC A59A0E1F
Copy OK
Track 6
Filename D:\flac\Ella Fitzgerald\1935-1937\06 - All My Life.wav
Pre-gap length 0:00:00.62
Peak level 72.4 %
Track quality 100.0 %
Test CRC 23EB3707
Copy CRC 23EB3707
Copy OK
Track 7
Filename D:\flac\Ella Fitzgerald\1935-1937\07 - Crying My Heart Out For You.wav
Pre-gap length 0:00:00.49
Peak level 95.5 %
Track quality 100.0 %
Test CRC 12F2D58C
Copy CRC 12F2D58C
Copy OK
Track 8
Filename D:\flac\Ella Fitzgerald\1935-1937\08 - Under The Spell Of The Blues.wav
Pre-gap length 0:00:00.62
Peak level 93.9 %
Track quality 100.0 %
Test CRC EBBDF007
Copy CRC EBBDF007
Copy OK
Track 9
Filename D:\flac\Ella Fitzgerald\1935-1937\09 - When I Get Low I Get High.wav
Pre-gap length 0:00:01.08
Peak level 92.2 %
Track quality 100.0 %
Test CRC 82CB9D71
Copy CRC 82CB9D71
Copy OK
Track 10
Filename D:\flac\Ella Fitzgerald\1935-1937\10 - Sing Me A Swing Song (And Let Me Dance).wav
Pre-gap length 0:00:01.00
Peak level 86.2 %
Track quality 100.0 %
Test CRC 46C6055E
Copy CRC 46C6055E
Copy OK
Track 11
Filename D:\flac\Ella Fitzgerald\1935-1937\11 - A Little Bit Later On.wav
Pre-gap length 0:00:00.25
Peak level 100.0 %
Track quality 100.0 %
Test CRC 659D141D
Copy CRC 659D141D
Copy OK
Track 12
Filename D:\flac\Ella Fitzgerald\1935-1937\12 - Love You're Just A Laugh.wav
Pre-gap length 0:00:01.12
Peak level 77.3 %
Track quality 100.0 %
Test CRC B598D36A
Copy CRC B598D36A
Copy OK
Track 13
Filename D:\flac\Ella Fitzgerald\1935-1937\13 - Devoting My Time To You.wav
Pre-gap length 0:00:01.65
Peak level 100.0 %
Track quality 99.9 %
Test CRC CE2AA37E
Copy CRC CE2AA37E
Copy OK
Track 14
Filename D:\flac\Ella Fitzgerald\1935-1937\14 - You'll Have To Swing It.wav
Pre-gap length 0:00:00.69
Peak level 100.0 %
Track quality 100.0 %
Test CRC 54AE82B5
Copy CRC 54AE82B5
Copy OK
Track 15
Filename D:\flac\Ella Fitzgerald\1935-1937\15 - Swingin' On The Reservation.wav
Pre-gap length 0:00:00.43
Peak level 93.2 %
Track quality 100.0 %
Test CRC 7B3C0748
Copy CRC 7B3C0748
Copy OK
Track 16
Filename D:\flac\Ella Fitzgerald\1935-1937\16 - Got The Spring Fever Blues.wav
Pre-gap length 0:00:00.43
Peak level 74.8 %
Track quality 100.0 %
Test CRC E0C3B696
Copy CRC E0C3B696
Copy OK
Track 17
Filename D:\flac\Ella Fitzgerald\1935-1937\17 - Vote For Mr. Rythm.wav
Pre-gap length 0:00:00.50
Peak level 98.8 %
Track quality 100.0 %
Test CRC AFCB6C25
Copy CRC AFCB6C25
Copy OK
Track 18
Filename D:\flac\Ella Fitzgerald\1935-1937\18 - Goodnight My Love.wav
Pre-gap length 0:00:01.02
Peak level 90.0 %
Track quality 100.0 %
Test CRC 789E2E34
Copy CRC 789E2E34
Copy OK
Track 19
Filename D:\flac\Ella Fitzgerald\1935-1937\19 - Oh, Yes, Take Another Guess.wav
Pre-gap length 0:00:00.68
Peak level 84.8 %
Track quality 100.0 %
Test CRC 312DCAF7
Copy CRC 312DCAF7
Copy OK
Track 20
Filename D:\flac\Ella Fitzgerald\1935-1937\20 - Didja Mean It.wav
Pre-gap length 0:00:01.07
Peak level 87.8 %
Track quality 100.0 %
Test CRC D88F553A
Copy CRC D88F553A
Copy OK
Track 21
Filename D:\flac\Ella Fitzgerald\1935-1937\21 - My Last Affair.wav
Pre-gap length 0:00:00.64
Peak level 100.0 %
Track quality 99.9 %
Test CRC 12A676D8
Copy CRC 12A676D8
Copy OK
Track 22
Filename D:\flac\Ella Fitzgerald\1935-1937\22 - Organ Grinder's Swing.wav
Pre-gap length 0:00:00.39
Peak level 100.0 %
Track quality 100.0 %
Test CRC F353D6C4
Copy CRC F353D6C4
Copy OK
Track 23
Filename D:\flac\Ella Fitzgerald\1935-1937\23 - Shine.wav
Pre-gap length 0:00:00.41
Peak level 89.7 %
Track quality 100.0 %
Test CRC 421AA886
Copy CRC 421AA886
Copy OK
Track 24
Filename D:\flac\Ella Fitzgerald\1935-1937\24 - Darktown Strutters' Ball.wav
Pre-gap length 0:00:00.48
Peak level 97.8 %
Track quality 100.0 %
Test CRC 575B53DA
Copy CRC 575B53DA
Copy OK
Track 25
Filename D:\flac\Ella Fitzgerald\1935-1937\25 - Take Another Guess.wav
Pre-gap length 0:00:00.67
Peak level 100.0 %
Track quality 100.0 %
Test CRC 4F20E6AA
Copy CRC 4F20E6AA
Copy OK
No errors occured
End of status report
No seeders - write personal message to M0p94ok. Any questions - support@pro-jazz.com.
Нет сидеров - пишите в личку M0p94ok. Есть вопросы - support@pro-jazz.com
05:23
262
Нет комментариев. Ваш будет первым!