Поиск

1990 Count Basie And His Orchestra - 1939 {The Chronological Classics CC513} [CD]

1990 Count Basie And His Orchestra - 1939 {The Chronological Classics CC513} [CD]
Стили:
Дата издания диска:
1990
Издатель (лейбл):
Номер по каталогу:
513
Носитель:
CD
Тип рипа:
image
Аудиокодек:
FLAC (*.flac)
Битрейт аудио:
lossless
Время звучания:
01:08:39
Наличие сканов:
буклет pdf
Страна-производитель диска (релиза):
France
Релизёр (источник):
Mazeppa
Лог создания рипа
Exact Audio Copy V0.99 prebeta 3 from 28. July 2007

EAC extraction logfile from 1. February 2008, 4:27

Count Basie / Count Basie And His Orchestra: 1939

Used drive  : PLEXTOR DVDR   PX-800A   Adapter: 1  ID: 0

Read mode               : Secure
Utilize accurate stream : Yes
Defeat audio cache      : Yes
Make use of C2 pointers : No

Read offset correction                      : 48
Overread into Lead-In and Lead-Out          : No
Fill up missing offset samples with silence : Yes
Delete leading and trailing silent blocks   : No
Null samples used in CRC calculations       : Yes
Used interface                              : Installed external ASPI interface

Used output format              : User Defined Encoder
Selected bitrate                : 320 kBit/s
Quality                         : High
Add ID3 tag                     : No
Command line compressor         : C:\Program Files\FLAC\flac.exe
Additional command line options :  -V -8 -T "artist=%a" -T "title=%t" -T "album=%g" -T "date=%y" -T "tracknumber=%n" -T "genre=%m" %s

TOC of the extracted CD

     Track |   Start  |  Length  | Start sector | End sector
    ---------------------------------------------------------
        1  |  0:00.33 |  3:06.17 |        33    |    13999
        2  |  3:06.50 |  3:06.18 |     14000    |    27967
        3  |  6:12.68 |  2:57.35 |     27968    |    41277
        4  |  9:10.28 |  2:55.72 |     41278    |    54474
        5  | 12:06.25 |  3:08.23 |     54475    |    68597
        6  | 15:14.48 |  3:06.00 |     68598    |    82547
        7  | 18:20.48 |  3:01.70 |     82548    |    96192
        8  | 21:22.43 |  2:43.00 |     96193    |   108417
        9  | 24:05.43 |  2:46.55 |    108418    |   120922
       10  | 26:52.23 |  3:12.12 |    120923    |   135334
       11  | 30:04.35 |  3:12.20 |    135335    |   149754
       12  | 33:16.55 |  3:09.63 |    149755    |   163992
       13  | 36:26.43 |  2:57.50 |    163993    |   177317
       14  | 39:24.18 |  3:07.27 |    177318    |   191369
       15  | 42:31.45 |  3:05.55 |    191370    |   205299
       16  | 45:37.25 |  2:32.08 |    205300    |   216707
       17  | 48:09.33 |  2:47.37 |    216708    |   229269
       18  | 50:56.70 |  3:02.43 |    229270    |   242962
       19  | 53:59.38 |  2:52.60 |    242963    |   255922
       20  | 56:52.23 |  2:59.47 |    255923    |   269394
       21  | 59:51.70 |  2:49.73 |    269395    |   282142
       22  | 62:41.68 |  2:48.30 |    282143    |   294772
       23  | 65:30.23 |  3:09.37 |    294773    |   308984

Range status and errors

Selected range

     Filename D:\WinRar\Count Basie - 1939 (Chronogical Classics)[FLAC Full Scans]\Count Basie - Count Basie And His Orchestra  1939.wav

     Peak level 100.0 %
     Range quality 99.9 %
     Test CRC F4522774
     Copy CRC F4522774
     Copy OK

No errors occurred

End of status report
Содержание индексной карты (.CUE)
REM GENRE Jazz
REM DATE 1990
REM DISCID 62101717
REM COMMENT "ExactAudioCopy v0.99pb3"
PERFORMER "Count Basie"
TITLE "1939"
FILE "Count Basie - 1939.wav" WAVE
  TRACK 01 AUDIO
    TITLE "Fare Thee Honey, Fare Thee Well"
    PERFORMER "Count Basie"
    INDEX 00 00:00:00
    INDEX 01 00:00:33
  TRACK 02 AUDIO
    TITLE "Dupree Blues"
    PERFORMER "Count Basie"
    INDEX 00 03:04:33
    INDEX 01 03:06:50
  TRACK 03 AUDIO
    TITLE "When the Sun Goes Down"
    PERFORMER "Count Basie"
    INDEX 00 06:11:18
    INDEX 01 06:12:68
  TRACK 04 AUDIO
    TITLE "Red Wagon"
    PERFORMER "Count Basie"
    INDEX 00 09:08:10
    INDEX 01 09:10:28
  TRACK 05 AUDIO
    TITLE "You Can Depend on Me"
    PERFORMER "Count Basie"
    INDEX 00 12:04:28
    INDEX 01 12:06:25
  TRACK 06 AUDIO
    TITLE "Cherokee - Part I"
    PERFORMER "Count Basie"
    INDEX 00 15:13:00
    INDEX 01 15:14:48
  TRACK 07 AUDIO
    TITLE "Cherokee - Part II"
    PERFORMER "Count Basie"
    INDEX 00 18:19:08
    INDEX 01 18:20:48
  TRACK 08 AUDIO
    TITLE "Blame It on My Last Affair"
    PERFORMER "Count Basie"
    INDEX 00 21:20:48
    INDEX 01 21:22:43
  TRACK 09 AUDIO
    TITLE "Jive at Five"
    PERFORMER "Count Basie"
    INDEX 00 24:03:50
    INDEX 01 24:05:43
  TRACK 10 AUDIO
    TITLE "Thursday"
    PERFORMER "Count Basie"
    INDEX 00 26:50:48
    INDEX 01 26:52:23
  TRACK 11 AUDIO
    TITLE "Evil Blues"
    PERFORMER "Count Basie"
    INDEX 00 30:02:38
    INDEX 01 30:04:35
  TRACK 12 AUDIO
    TITLE "Oh! Lady, Be Good"
    PERFORMER "Count Basie"
    INDEX 00 33:15:25
    INDEX 01 33:16:55
  TRACK 13 AUDIO
    TITLE "I Ain't Got Nobody"
    PERFORMER "Count Basie"
    INDEX 00 36:24:35
    INDEX 01 36:26:43
  TRACK 14 AUDIO
    TITLE "Going to Chicago"
    PERFORMER "Count Basie"
    INDEX 00 39:22:15
    INDEX 01 39:24:18
  TRACK 15 AUDIO
    TITLE "Live and Love Tonight"
    PERFORMER "Count Basie"
    INDEX 00 42:29:63
    INDEX 01 42:31:45
  TRACK 16 AUDIO
    TITLE "Love Me or Leave Me"
    PERFORMER "Count Basie"
    INDEX 00 45:35:50
    INDEX 01 45:37:25
  TRACK 17 AUDIO
    TITLE "What Goes Up Must Come Down"
    PERFORMER "Count Basie"
    INDEX 00 48:07:65
    INDEX 01 48:09:33
  TRACK 18 AUDIO
    TITLE "Rock-A-Bye Basie"
    PERFORMER "Count Basie"
    INDEX 00 50:55:38
    INDEX 01 50:56:70
  TRACK 19 AUDIO
    TITLE "Baby, Don't Tell on Me"
    PERFORMER "Count Basie"
    INDEX 00 53:57:48
    INDEX 01 53:59:38
  TRACK 20 AUDIO
    TITLE "If I Could Be with You One Hour Tonight"
    PERFORMER "Count Basie"
    INDEX 00 56:50:40
    INDEX 01 56:52:23
  TRACK 21 AUDIO
    TITLE "Taxi War Dance"
    PERFORMER "Count Basie"
    INDEX 00 59:50:19
    INDEX 01 59:51:70
  TRACK 22 AUDIO
    TITLE "Don't Worry About Me"
    PERFORMER "Count Basie"
    INDEX 00 62:39:58
    INDEX 01 62:41:68
  TRACK 23 AUDIO
    TITLE "Jump for Me"
    PERFORMER "Count Basie"
    INDEX 00 65:28:50
    INDEX 01 65:30:23
No seeders - write personal message to M0p94ok. Any questions - support@pro-jazz.com.
Нет сидеров - пишите в личку M0p94ok. Есть вопросы - support@pro-jazz.com
18:32
249
Нет комментариев. Ваш будет первым!