Поиск

1990 Count Basie And His Orchestra - 1938-1939 {The Chronological Classics CC504} [CD]

1990 Count Basie And His Orchestra - 1938-1939 {The Chronological Classics CC504} [CD]
Стили:
Дата записи диска:
3 января 1938 - 26 января 1939
Издатель (лейбл):
Номер по каталогу:
CC504
Носитель:
CD
Тип рипа:
tracks
Аудиокодек:
FLAC (*.flac)
Битрейт аудио:
lossless
Время звучания:
01:12:54
Наличие сканов:
буклет pdf
Страна-производитель диска (релиза):
France
Релизёр (источник):
weejie
Лог создания рипа
EAC extraction logfile from 24. May 2008, 14:48 for CD
Count Basie And His Orchestra / 1938 - 1939

Used drive  : HL-DT-STCDRW/DVD GCC4482   Adapter: 1  ID: 0
Read mode   : Secure with NO C2, accurate stream, disable cache
Read offset correction : 6
Overread into Lead-In and Lead-Out : No

Used output format : C:\Eac\Codecs\flac.exe   (User Defined Encoder)
                     320 kBit/s
                     Additional command line options : -8 -V -T "artist=%a" -T "title=%t" -T "album=%g" -T "date=%y" -T "tracknumber=%n" -T "genre=%m" -T "comment=EAC Flac 1.1.2 -8" %s

Other options      :
    Fill up missing offset samples with silence : Yes
    Delete leading and trailing silent blocks : No
    Installed external ASPI interface

Track  1
     Filename C:\Documents and Settings\basie\01 - Blues in the Dark.wav

     Pre-gap length  0:00:02.42

     Peak level 100.0 %
     Track quality 100.0 %
     Test CRC C4EC38E0
     Copy CRC C4EC38E0
     Copy OK

Track  2
     Filename C:\Documents and Settings\basie\02 - Sent For You Yesterday.wav

     Pre-gap length  0:00:00.86

     Peak level 100.0 %
     Track quality 100.0 %
     Test CRC 316A0398
     Copy CRC 316A0398
     Copy OK

Track  3
     Filename C:\Documents and Settings\basie\03 - Every Tub.wav

     Pre-gap length  0:00:00.89

     Peak level 98.6 %
     Track quality 100.0 %
     Test CRC EEAA7C9E
     Copy CRC EEAA7C9E
     Copy OK

Track  4
     Filename C:\Documents and Settings\basie\04 - Now Will You Be Good.wav

     Pre-gap length  0:00:00.77

     Peak level 95.6 %
     Track quality 100.0 %
     Test CRC 8E524243
     Copy CRC 8E524243
     Copy OK

Track  5
     Filename C:\Documents and Settings\basie\05 - Swinging the Blues.wav

     Pre-gap length  0:00:00.96

     Peak level 93.3 %
     Track quality 100.0 %
     Test CRC 0AFF8AD6
     Copy CRC 0AFF8AD6
     Copy OK

Track  6
     Filename C:\Documents and Settings\basie\06 - Mama Don't Want No Peas an' Rice an' Cocoanut Oil.wav

     Pre-gap length  0:00:00.64

     Peak level 74.9 %
     Track quality 100.0 %
     Test CRC 4EEB5ED9
     Copy CRC 4EEB5ED9
     Copy OK

Track  7
     Filename C:\Documents and Settings\basie\07 - Blue and Sentimental.wav

     Pre-gap length  0:00:00.66

     Peak level 92.1 %
     Track quality 100.0 %
     Test CRC DBF676BC
     Copy CRC DBF676BC
     Copy OK

Track  8
     Filename C:\Documents and Settings\basie\08 - Doggin' Around.wav

     Pre-gap length  0:00:00.60

     Peak level 82.3 %
     Track quality 100.0 %
     Test CRC 6E88A773
     Copy CRC 6E88A773
     Copy OK

Track  9
     Filename C:\Documents and Settings\basie\09 - Stop Beatin' Around the Mulberry Bush.wav

     Pre-gap length  0:00:00.73

     Peak level 71.7 %
     Track quality 100.0 %
     Test CRC 0BAFC106
     Copy CRC 0BAFC106
     Copy OK

Track 10
     Filename C:\Documents and Settings\basie\10 - London Bridge is Fallin' Down.wav

     Pre-gap length  0:00:00.90

     Peak level 72.0 %
     Track quality 100.0 %
     Test CRC 5ED822B8
     Copy CRC 5ED822B8
     Copy OK

Track 11
     Filename C:\Documents and Settings\basie\11 - Texas Shuffle.wav

     Pre-gap length  0:00:00.76

     Peak level 86.1 %
     Track quality 100.0 %
     Test CRC B4D59DD7
     Copy CRC B4D59DD7
     Copy OK

Track 12
     Filename C:\Documents and Settings\basie\12 - Jumpin' at the Woodside.wav

     Pre-gap length  0:00:00.96

     Peak level 81.6 %
     Track quality 99.9 %
     Test CRC E53A4FC4
     Copy CRC E53A4FC4
     Copy OK

Track 13
     Filename C:\Documents and Settings\basie\13 - How Long, How Long Blues.wav

     Pre-gap length  0:00:01.76

     Peak level 98.7 %
     Track quality 100.0 %
     Test CRC 884CC3A1
     Copy CRC 884CC3A1
     Copy OK

Track 14
     Filename C:\Documents and Settings\basie\14 - The Dirty Dozen.wav

     Pre-gap length  0:00:01.26

     Peak level 68.6 %
     Track quality 99.9 %
     Test CRC BB4638CE
     Copy CRC BB4638CE
     Copy OK

Track 15
     Filename C:\Documents and Settings\basie\15 - Hey Lawdy Mama.wav

     Pre-gap length  0:00:01.56

     Peak level 68.9 %
     Track quality 100.0 %
     Test CRC ACD9E216
     Copy CRC ACD9E216
     Copy OK

Track 16
     Filename C:\Documents and Settings\basie\16 - The Fives.wav

     Pre-gap length  0:00:00.36

     Peak level 83.8 %
     Track quality 100.0 %
     Test CRC FA1F8145
     Copy CRC FA1F8145
     Copy OK

Track 17
     Filename C:\Documents and Settings\basie\17 - Boogie Woogie.wav

     Pre-gap length  0:00:01.53

     Peak level 100.0 %
     Track quality 100.0 %
     Test CRC B29A6197
     Copy CRC B29A6197
     Copy OK

Track 18
     Filename C:\Documents and Settings\basie\18 - Dark Rupture.wav

     Pre-gap length  0:00:01.37

     Peak level 89.4 %
     Track quality 100.0 %
     Test CRC C40DF846
     Copy CRC C40DF846
     Copy OK

Track 19
     Filename C:\Documents and Settings\basie\19 - Shorty George.wav

     Pre-gap length  0:00:00.76

     Peak level 83.1 %
     Track quality 100.0 %
     Test CRC A57FAAF2
     Copy CRC A57FAAF2
     Copy OK

Track 20
     Filename C:\Documents and Settings\basie\20 - The Blues I Like to Hear.wav

     Pre-gap length  0:00:00.86

     Peak level 87.6 %
     Track quality 100.0 %
     Test CRC 41E69E46
     Copy CRC 41E69E46
     Copy OK

Track 21
     Filename C:\Documents and Settings\basie\21 - Do You Wanna Jump Children.wav

     Pre-gap length  0:00:00.97

     Peak level 77.1 %
     Track quality 99.9 %
     Test CRC 8EA244DC
     Copy CRC 8EA244DC
     Copy OK

Track 22
     Filename C:\Documents and Settings\basie\22 - Panassie Stomp.wav

     Pre-gap length  0:00:00.93

     Peak level 100.0 %
     Track quality 100.0 %
     Test CRC 75272F46
     Copy CRC 75272F46
     Copy OK

Track 23
     Filename C:\Documents and Settings\basie\23 - My Heart Belongs to Daddy.wav

     Pre-gap length  0:00:00.56

     Peak level 86.1 %
     Track quality 100.0 %
     Test CRC B012D7A4
     Copy CRC B012D7A4
     Copy OK

Track 24
     Filename C:\Documents and Settings\basie\24 - Sing for Your Supper.wav

     Pre-gap length  0:00:00.73

     Peak level 73.2 %
     Track quality 100.0 %
     Test CRC E5A475AC
     Copy CRC E5A475AC
     Copy OK

Track 25
     Filename C:\Documents and Settings\basie\25 - Oh! Red.wav

     Pre-gap length  0:00:00.49

     Peak level 76.5 %
     Track quality 100.0 %
     Test CRC 084F027C
     Copy CRC 084F027C
     Copy OK

No errors occured

End of status report
Содержание индексной карты (.CUE)
REM GENRE Jazz
REM DATE 1990
REM DISCID 72114A19
REM COMMENT "ExactAudioCopy v0.95b4"
PERFORMER "Count Basie"
TITLE "1938-1939"
FILE "01 - Blues in the Dark.wav" WAVE
  TRACK 01 AUDIO
    TITLE "Blues in the Dark"
    PERFORMER "Count Basie"
    PREGAP 00:00:32
    INDEX 01 00:00:00
  TRACK 02 AUDIO
    TITLE "Sent for You Yesterday"
    PERFORMER "Count Basie"
    INDEX 00 03:00:48
FILE "02 - Sent for You Yesterday.wav" WAVE
    INDEX 01 00:00:00
  TRACK 03 AUDIO
    TITLE "Every Tub"
    PERFORMER "Count Basie"
    INDEX 00 02:53:20
FILE "03 - Every Tub.wav" WAVE
    INDEX 01 00:00:00
  TRACK 04 AUDIO
    TITLE "Now Will You Be Good"
    PERFORMER "Count Basie"
    INDEX 00 03:14:20
FILE "04 - Now Will You Be Good.wav" WAVE
    INDEX 01 00:00:00
  TRACK 05 AUDIO
    TITLE "Swinging the Blues"
    PERFORMER "Count Basie"
    INDEX 00 02:50:70
FILE "05 - Swinging the Blues.wav" WAVE
    INDEX 01 00:00:00
  TRACK 06 AUDIO
    TITLE "Mama Don't Want No Peas an' Rice an' Cocoanut Oil"
    PERFORMER "Count Basie"
    INDEX 00 02:41:45
FILE "06 - Mama Don't Want No Peas an' Rice an' Cocoanut Oil.wav" WAVE
    INDEX 01 00:00:00
  TRACK 07 AUDIO
    TITLE "Blue and Sentimental"
    PERFORMER "Count Basie"
    INDEX 00 02:55:12
FILE "07 - Blue and Sentimental.wav" WAVE
    INDEX 01 00:00:00
  TRACK 08 AUDIO
    TITLE "Doggin' Around"
    PERFORMER "Count Basie"
    INDEX 00 03:08:35
FILE "08 - Doggin' Around.wav" WAVE
    INDEX 01 00:00:00
  TRACK 09 AUDIO
    TITLE "Stop Beatin' Around the Mulberry Bush"
    PERFORMER "Count Basie"
    INDEX 00 02:57:55
FILE "09 - Stop Beatin' Around the Mulberry Bush.wav" WAVE
    INDEX 01 00:00:00
  TRACK 10 AUDIO
    TITLE "London Bridge Is Fallin' Down"
    PERFORMER "Count Basie"
    INDEX 00 03:13:15
FILE "10 - London Bridge Is Fallin' Down.wav" WAVE
    INDEX 01 00:00:00
  TRACK 11 AUDIO
    TITLE "Texas Shuffle"
    PERFORMER "Count Basie"
    INDEX 00 02:58:60
FILE "11 - Texas Shuffle.wav" WAVE
    INDEX 01 00:00:00
  TRACK 12 AUDIO
    TITLE "Jumpin' at the Woodside"
    PERFORMER "Count Basie"
    INDEX 00 03:01:63
FILE "12 - Jumpin' at the Woodside.wav" WAVE
    INDEX 01 00:00:00
  TRACK 13 AUDIO
    TITLE "How Long, How Long Blues"
    PERFORMER "Count Basie"
    INDEX 00 03:02:63
FILE "13 - How Long, How Long Blues.wav" WAVE
    INDEX 01 00:00:00
  TRACK 14 AUDIO
    TITLE "The Dirty Dozen"
    PERFORMER "Count Basie"
    INDEX 00 02:54:38
FILE "14 - The Dirty Dozen.wav" WAVE
    INDEX 01 00:00:00
  TRACK 15 AUDIO
    TITLE "Hey Lawdy Mama"
    PERFORMER "Count Basie"
    INDEX 00 03:02:05
FILE "15 - Hey Lawdy Mama.wav" WAVE
    INDEX 01 00:00:00
  TRACK 16 AUDIO
    TITLE "The Fives"
    PERFORMER "Count Basie"
    INDEX 00 02:46:68
FILE "16 - The Fives.wav" WAVE
    INDEX 01 00:00:00
  TRACK 17 AUDIO
    TITLE "Boogie Woogie"
    PERFORMER "Count Basie"
    INDEX 00 02:47:53
FILE "17 - Boogie Woogie.wav" WAVE
    INDEX 01 00:00:00
  TRACK 18 AUDIO
    TITLE "Dark Rupture"
    PERFORMER "Count Basie"
    INDEX 00 03:02:22
FILE "18 - Dark Rupture.wav" WAVE
    INDEX 01 00:00:00
  TRACK 19 AUDIO
    TITLE "Shorty George"
    PERFORMER "Count Basie"
    INDEX 00 02:43:35
FILE "19 - Shorty George.wav" WAVE
    INDEX 01 00:00:00
  TRACK 20 AUDIO
    TITLE "The Blues I Like to Hear"
    PERFORMER "Count Basie"
    INDEX 00 02:43:00
FILE "20 - The Blues I Like to Hear.wav" WAVE
    INDEX 01 00:00:00
  TRACK 21 AUDIO
    TITLE "Do You Wanna Jump Children"
    PERFORMER "Count Basie"
    INDEX 00 03:15:00
FILE "21 - Do You Wanna Jump Children.wav" WAVE
    INDEX 01 00:00:00
  TRACK 22 AUDIO
    TITLE "Panassie Stomp"
    PERFORMER "Count Basie"
    INDEX 00 02:44:05
FILE "22 - Panassie Stomp.wav" WAVE
    INDEX 01 00:00:00
  TRACK 23 AUDIO
    TITLE "My Heart Belongs to Daddy"
    PERFORMER "Count Basie"
    INDEX 00 02:45:45
FILE "23 - My Heart Belongs to Daddy.wav" WAVE
    INDEX 01 00:00:00
  TRACK 24 AUDIO
    TITLE "Sing for Your Supper"
    PERFORMER "Count Basie"
    INDEX 00 02:58:55
FILE "24 - Sing for Your Supper.wav" WAVE
    INDEX 01 00:00:00
  TRACK 25 AUDIO
    TITLE "Oh! Red"
    PERFORMER "Count Basie"
    INDEX 00 02:46:18
FILE "25 - Oh! Red.wav" WAVE
    INDEX 01 00:00:00
No seeders - write personal message to M0p94ok. Any questions - support@pro-jazz.com.
Нет сидеров - пишите в личку M0p94ok. Есть вопросы - support@pro-jazz.com
13:24
251
Нет комментариев. Ваш будет первым!