Поиск

1990 Count Basie - 1939, Vol.2 {The Chronological Classics CC533} [CD]

1990 Count Basie - 1939, Vol.2 {The Chronological Classics CC533} [CD]
Стили:
Издатель (лейбл):
Номер по каталогу:
CC533
Носитель:
CD
Тип рипа:
tracks+.cue
Аудиокодек:
FLAC (*.flac)
Битрейт аудио:
lossless
Время звучания:
01:10:26
Наличие сканов:
web
Страна-производитель диска (релиза):
France
Релизёр (источник):
EmilSitka
Треклист:

01. And the Angels Sing (3:05)
02. If I Didn't Care (2:48)
03. Twelfth Street Rag (3:03)
04. Miss Thing - Part I (2:59)
05. Miss Thing - Part II (2:45)
06. Lonesome Miss Pretty (2:55)
07. Bolero at the Savoy (3:01)
08. Nobody Knows (2:48)
09. Pound Cake (2:47)
10. You Can Count on Me (2:58)
11. You and Your Love (2:44)
12. How Long Blues (3:01)
13. Sub-Deb Blues (2:59)
14. Moonlight Serenade (3:14)
15. Song of the Islands (3:05)
16. I Can't Believe That You're in Love with Me (2:43)
17. Clap Hands, Here Comes Charlie (2:32)
18. Dickie's Dream (3:12)
19. Lester Leaps In (3:14)
20. The Apple Jump (3:00)
21. I Left My Baby (3:14)
22. Riff Interlude (3:04)
23. Volcano (2:51)
24. Between the Devil and the Deep Blue Sea (2:35)

Лог создания рипа
Exact Audio Copy V0.99 prebeta 4 from 23. January 2008

EAC extraction logfile from 18. February 2009, 10:32

Count Basie / 1939 Vol. 2

Used drive  : PHILIPS DVD+-RW DVD8801   Adapter: 0  ID: 0

Read mode               : Secure
Utilize accurate stream : Yes
Defeat audio cache      : Yes
Make use of C2 pointers : No

Read offset correction                      : 618
Overread into Lead-In and Lead-Out          : No
Fill up missing offset samples with silence : Yes
Delete leading and trailing silent blocks   : No
Null samples used in CRC calculations       : Yes
Used interface                              : Native Win32 interface for Win NT & 2000
Gap handling                                : Appended to previous track

Used output format              : User Defined Encoder
Selected bitrate                : 768 kBit/s
Quality                         : High
Add ID3 tag                     : No
Command line compressor         : C:\Program Files\Exact Audio Copy\Flac\flac.exe
Additional command line options :  -8 -V -T "ARTIST=%a" -T "TITLE=%t" -T "ALBUM=%g" -T "DATE=%y" -T "TRACKNUMBER=%n" -T "GENRE=%m" -T "COMMENT=EAC FLAC -8" %s

TOC of the extracted CD

     Track |   Start  |  Length  | Start sector | End sector
    ---------------------------------------------------------
        1  |  0:00.32 |  3:04.68 |        32    |    13899
        2  |  3:05.25 |  2:47.67 |     13900    |    26491
        3  |  5:53.17 |  3:03.25 |     26492    |    40241
        4  |  8:56.42 |  2:58.40 |     40242    |    53631
        5  | 11:55.07 |  2:45.28 |     53632    |    66034
        6  | 14:40.35 |  2:54.45 |     66035    |    79129
        7  | 17:35.05 |  3:00.67 |     79130    |    92696
        8  | 20:35.72 |  2:48.28 |     92697    |   105324
        9  | 23:24.25 |  2:47.00 |    105325    |   117849
       10  | 26:11.25 |  2:57.42 |    117850    |   131166
       11  | 29:08.67 |  2:44.18 |    131167    |   143484
       12  | 31:53.10 |  3:00.40 |    143485    |   157024
       13  | 34:53.50 |  2:59.02 |    157025    |   170451
       14  | 37:52.52 |  3:14.35 |    170452    |   185036
       15  | 41:07.12 |  3:04.45 |    185037    |   198881
       16  | 44:11.57 |  2:43.20 |    198882    |   211126
       17  | 46:55.02 |  2:31.50 |    211127    |   222501
       18  | 49:26.52 |  3:11.40 |    222502    |   236866
       19  | 52:38.17 |  3:14.20 |    236867    |   251436
       20  | 55:52.37 |  3:00.28 |    251437    |   264964
       21  | 58:52.65 |  3:14.07 |    264965    |   279521
       22  | 62:06.72 |  3:04.23 |    279522    |   293344
       23  | 65:11.20 |  2:51.05 |    293345    |   306174
       24  | 68:02.25 |  2:34.67 |    306175    |   317791

Track  1

     Filename G:\Count Basie - 1939 Vol. 2 (1990) [FLAC] {Chronogical Classics 533}\01 - And The Angels Sing.wav

     Pre-gap length  0:00:02.42

     Peak level 78.1 %
     Track quality 100.0 %
     Test CRC 7669DE71
     Copy CRC 7669DE71
     Track not present in AccurateRip database
     Copy OK

Track  2

     Filename G:\Count Basie - 1939 Vol. 2 (1990) [FLAC] {Chronogical Classics 533}\02 - If I Didn't Care.wav

     Pre-gap length  0:00:02.06

     Peak level 89.4 %
     Track quality 100.0 %
     Test CRC 649E537E
     Copy CRC 649E537E
     Track not present in AccurateRip database
     Copy OK

Track  3

     Filename G:\Count Basie - 1939 Vol. 2 (1990) [FLAC] {Chronogical Classics 533}\03 - Twelfth Street Rag.wav

     Pre-gap length  0:00:02.76

     Peak level 95.1 %
     Track quality 100.0 %
     Test CRC 4025286A
     Copy CRC 4025286A
     Track not present in AccurateRip database
     Copy OK

Track  4

     Filename G:\Count Basie - 1939 Vol. 2 (1990) [FLAC] {Chronogical Classics 533}\04 - Miss Thing (Part I).wav

     Pre-gap length  0:00:02.46

     Peak level 95.1 %
     Track quality 100.0 %
     Test CRC 9DFD4DE4
     Copy CRC 9DFD4DE4
     Track not present in AccurateRip database
     Copy OK

Track  5

     Filename G:\Count Basie - 1939 Vol. 2 (1990) [FLAC] {Chronogical Classics 533}\05 - Miss Thing (Part II).wav

     Pre-gap length  0:00:01.82

     Peak level 95.1 %
     Track quality 99.9 %
     Test CRC FE55DA34
     Copy CRC FE55DA34
     Track not present in AccurateRip database
     Copy OK

Track  6

     Filename G:\Count Basie - 1939 Vol. 2 (1990) [FLAC] {Chronogical Classics 533}\06 - Lonesome Miss Pretty.wav

     Pre-gap length  0:00:02.97

     Peak level 70.7 %
     Track quality 100.0 %
     Test CRC C58EAD8B
     Copy CRC C58EAD8B
     Track not present in AccurateRip database
     Copy OK

Track  7

     Filename G:\Count Basie - 1939 Vol. 2 (1990) [FLAC] {Chronogical Classics 533}\07 - Bolero At The Savoy.wav

     Pre-gap length  0:00:02.93

     Peak level 95.1 %
     Track quality 100.0 %
     Test CRC 2DE5D56A
     Copy CRC 2DE5D56A
     Track not present in AccurateRip database
     Copy OK

Track  8

     Filename G:\Count Basie - 1939 Vol. 2 (1990) [FLAC] {Chronogical Classics 533}\08 - Nobody Knows.wav

     Pre-gap length  0:00:03.16

     Peak level 78.9 %
     Track quality 100.0 %
     Test CRC D254F395
     Copy CRC D254F395
     Track not present in AccurateRip database
     Copy OK

Track  9

     Filename G:\Count Basie - 1939 Vol. 2 (1990) [FLAC] {Chronogical Classics 533}\09 - Pound Cake.wav

     Pre-gap length  0:00:03.00

     Peak level 89.8 %
     Track quality 100.0 %
     Test CRC 497682E4
     Copy CRC 497682E4
     Track not present in AccurateRip database
     Copy OK

Track 10

     Filename G:\Count Basie - 1939 Vol. 2 (1990) [FLAC] {Chronogical Classics 533}\10 - You Can Count On Me.wav

     Pre-gap length  0:00:03.37

     Peak level 78.9 %
     Track quality 100.0 %
     Test CRC 42C0E2E3
     Copy CRC 42C0E2E3
     Track not present in AccurateRip database
     Copy OK

Track 11

     Filename G:\Count Basie - 1939 Vol. 2 (1990) [FLAC] {Chronogical Classics 533}\11 - You And Your Love.wav

     Pre-gap length  0:00:02.93

     Peak level 74.7 %
     Track quality 100.0 %
     Test CRC F63C5956
     Copy CRC F63C5956
     Track not present in AccurateRip database
     Copy OK

Track 12

     Filename G:\Count Basie - 1939 Vol. 2 (1990) [FLAC] {Chronogical Classics 533}\12 - How Long Blues.wav

     Pre-gap length  0:00:02.73

     Peak level 95.1 %
     Track quality 100.0 %
     Test CRC 622CAB63
     Copy CRC 622CAB63
     Track not present in AccurateRip database
     Copy OK

Track 13

     Filename G:\Count Basie - 1939 Vol. 2 (1990) [FLAC] {Chronogical Classics 533}\13 - Sub-Deb Blues.wav

     Pre-gap length  0:00:02.33

     Peak level 95.1 %
     Track quality 100.0 %
     Test CRC 0D886377
     Copy CRC 0D886377
     Track not present in AccurateRip database
     Copy OK

Track 14

     Filename G:\Count Basie - 1939 Vol. 2 (1990) [FLAC] {Chronogical Classics 533}\14 - Moonlight Serenade.wav

     Pre-gap length  0:00:03.16

     Peak level 88.1 %
     Track quality 100.0 %
     Test CRC 43C03326
     Copy CRC 43C03326
     Track not present in AccurateRip database
     Copy OK

Track 15

     Filename G:\Count Basie - 1939 Vol. 2 (1990) [FLAC] {Chronogical Classics 533}\15 - Song Of The Islands.wav

     Pre-gap length  0:00:03.22

     Peak level 88.1 %
     Track quality 99.9 %
     Test CRC B9C87887
     Copy CRC B9C87887
     Track not present in AccurateRip database
     Copy OK

Track 16

     Filename G:\Count Basie - 1939 Vol. 2 (1990) [FLAC] {Chronogical Classics 533}\16 - I Can't Believe That You're In Love With Me.wav

     Pre-gap length  0:00:02.96

     Peak level 88.1 %
     Track quality 100.0 %
     Test CRC AF0B0E83
     Copy CRC AF0B0E83
     Track not present in AccurateRip database
     Copy OK

Track 17

     Filename G:\Count Basie - 1939 Vol. 2 (1990) [FLAC] {Chronogical Classics 533}\17 - Clap Hands, Here Comes Charlie.wav

     Pre-gap length  0:00:02.80

     Peak level 88.1 %
     Track quality 100.0 %
     Test CRC 5AB1EC83
     Copy CRC 5AB1EC83
     Track not present in AccurateRip database
     Copy OK

Track 18

     Filename G:\Count Basie - 1939 Vol. 2 (1990) [FLAC] {Chronogical Classics 533}\18 - Dickie's Dream.wav

     Pre-gap length  0:00:03.06

     Peak level 88.1 %
     Track quality 100.0 %
     Test CRC F6C83B71
     Copy CRC F6C83B71
     Track not present in AccurateRip database
     Copy OK

Track 19

     Filename G:\Count Basie - 1939 Vol. 2 (1990) [FLAC] {Chronogical Classics 533}\19 - Lester Leaps In.wav

     Pre-gap length  0:00:03.73

     Peak level 88.1 %
     Track quality 99.9 %
     Test CRC 5D27E5A9
     Copy CRC 5D27E5A9
     Track not present in AccurateRip database
     Copy OK

Track 20

     Filename G:\Count Basie - 1939 Vol. 2 (1990) [FLAC] {Chronogical Classics 533}\20 - The Apple Jump.wav

     Pre-gap length  0:00:02.09

     Peak level 88.1 %
     Track quality 100.0 %
     Test CRC 54017FD4
     Copy CRC 54017FD4
     Track not present in AccurateRip database
     Copy OK

Track 21

     Filename G:\Count Basie - 1939 Vol. 2 (1990) [FLAC] {Chronogical Classics 533}\21 - I Left My Baby.wav

     Pre-gap length  0:00:03.40

     Peak level 88.1 %
     Track quality 100.0 %
     Test CRC 1A1B39B3
     Copy CRC 1A1B39B3
     Track not present in AccurateRip database
     Copy OK

Track 22

     Filename G:\Count Basie - 1939 Vol. 2 (1990) [FLAC] {Chronogical Classics 533}\22 - Riff Interlude.wav

     Pre-gap length  0:00:01.42

     Peak level 88.1 %
     Track quality 99.9 %
     Test CRC DD7785DE
     Copy CRC DD7785DE
     Track not present in AccurateRip database
     Copy OK

Track 23

     Filename G:\Count Basie - 1939 Vol. 2 (1990) [FLAC] {Chronogical Classics 533}\23 - Volcano.wav

     Pre-gap length  0:00:01.70

     Peak level 88.1 %
     Track quality 100.0 %
     Test CRC FB11CC7E
     Copy CRC FB11CC7E
     Track not present in AccurateRip database
     Copy OK

Track 24

     Filename G:\Count Basie - 1939 Vol. 2 (1990) [FLAC] {Chronogical Classics 533}\24 - Between The Devil And The Deep Blue Sea.wav

     Pre-gap length  0:00:01.97

     Peak level 88.1 %
     Track quality 100.0 %
     Test CRC 42DD2515
     Copy CRC 42DD2515
     Track not present in AccurateRip database
     Copy OK

None of the tracks are present in the AccurateRip database

No errors occurred

End of status report
Содержание индексной карты (.CUE)
REM GENRE Jazz
REM DATE 1990
REM DISCID 6E108D18
REM COMMENT "ExactAudioCopy v0.99pb4"
PERFORMER "Count Basie"
TITLE "1939, Vol.2"
FILE "01 - And the Angels Sing.wav" WAVE
  TRACK 01 AUDIO
    TITLE "And the Angels Sing"
    PERFORMER "Count Basie"
    PREGAP 00:00:32
    INDEX 01 00:00:00
  TRACK 02 AUDIO
    TITLE "If I Didn't Care"
    PERFORMER "Count Basie"
    INDEX 00 03:02:63
FILE "02 - If I Didn't Care.wav" WAVE
    INDEX 01 00:00:00
  TRACK 03 AUDIO
    TITLE "Twelfth Street Rag"
    PERFORMER "Count Basie"
    INDEX 00 02:45:10
FILE "03 - Twelfth Street Rag.wav" WAVE
    INDEX 01 00:00:00
  TRACK 04 AUDIO
    TITLE "Miss Thing - Part I"
    PERFORMER "Count Basie"
    INDEX 00 03:00:65
FILE "04 - Miss Thing - Part I.wav" WAVE
    INDEX 01 00:00:00
  TRACK 05 AUDIO
    TITLE "Miss Thing - Part II"
    PERFORMER "Count Basie"
    INDEX 00 02:56:53
FILE "05 - Miss Thing - Part II.wav" WAVE
    INDEX 01 00:00:00
  TRACK 06 AUDIO
    TITLE "Lonesome Miss Pretty"
    PERFORMER "Count Basie"
    INDEX 00 02:42:30
FILE "06 - Lonesome Miss Pretty.wav" WAVE
    INDEX 01 00:00:00
  TRACK 07 AUDIO
    TITLE "Bolero at the Savoy"
    PERFORMER "Count Basie"
    INDEX 00 02:51:50
FILE "07 - Bolero at the Savoy.wav" WAVE
    INDEX 01 00:00:00
  TRACK 08 AUDIO
    TITLE "Nobody Knows"
    PERFORMER "Count Basie"
    INDEX 00 02:57:55
FILE "08 - Nobody Knows.wav" WAVE
    INDEX 01 00:00:00
  TRACK 09 AUDIO
    TITLE "Pound Cake"
    PERFORMER "Count Basie"
    INDEX 00 02:45:28
FILE "09 - Pound Cake.wav" WAVE
    INDEX 01 00:00:00
  TRACK 10 AUDIO
    TITLE "You Can Count on Me"
    PERFORMER "Count Basie"
    INDEX 00 02:43:47
FILE "10 - You Can Count on Me.wav" WAVE
    INDEX 01 00:00:00
  TRACK 11 AUDIO
    TITLE "You and Your Love"
    PERFORMER "Count Basie"
    INDEX 00 02:54:47
FILE "11 - You and Your Love.wav" WAVE
    INDEX 01 00:00:00
  TRACK 12 AUDIO
    TITLE "How Long Blues"
    PERFORMER "Count Basie"
    INDEX 00 02:41:38
FILE "12 - How Long Blues.wav" WAVE
    INDEX 01 00:00:00
  TRACK 13 AUDIO
    TITLE "Sub-Deb Blues"
    PERFORMER "Count Basie"
    INDEX 00 02:58:15
FILE "13 - Sub-Deb Blues.wav" WAVE
    INDEX 01 00:00:00
  TRACK 14 AUDIO
    TITLE "Moonlight Serenade"
    PERFORMER "Count Basie"
    INDEX 00 02:55:65
FILE "14 - Moonlight Serenade.wav" WAVE
    INDEX 01 00:00:00
  TRACK 15 AUDIO
    TITLE "Song of the Islands"
    PERFORMER "Count Basie"
    INDEX 00 03:11:18
FILE "15 - Song of the Islands.wav" WAVE
    INDEX 01 00:00:00
  TRACK 16 AUDIO
    TITLE "I Can't Believe That You're in Love with Me"
    PERFORMER "Count Basie"
    INDEX 00 03:01:48
FILE "16 - I Can't Believe That You're in Love with Me.wav" WAVE
    INDEX 01 00:00:00
  TRACK 17 AUDIO
    TITLE "Clap Hands, Here Comes Charlie"
    PERFORMER "Count Basie"
    INDEX 00 02:40:35
FILE "17 - Clap Hands, Here Comes Charlie.wav" WAVE
    INDEX 01 00:00:00
  TRACK 18 AUDIO
    TITLE "Dickie's Dream"
    PERFORMER "Count Basie"
    INDEX 00 02:28:45
FILE "18 - Dickie's Dream.wav" WAVE
    INDEX 01 00:00:00
  TRACK 19 AUDIO
    TITLE "Lester Leaps In"
    PERFORMER "Count Basie"
    INDEX 00 03:07:60
FILE "19 - Lester Leaps In.wav" WAVE
    INDEX 01 00:00:00
  TRACK 20 AUDIO
    TITLE "The Apple Jump"
    PERFORMER "Count Basie"
    INDEX 00 03:12:13
FILE "20 - The Apple Jump.wav" WAVE
    INDEX 01 00:00:00
  TRACK 21 AUDIO
    TITLE "I Left My Baby"
    PERFORMER "Count Basie"
    INDEX 00 02:56:73
FILE "21 - I Left My Baby.wav" WAVE
    INDEX 01 00:00:00
  TRACK 22 AUDIO
    TITLE "Riff Interlude"
    PERFORMER "Count Basie"
    INDEX 00 03:12:50
FILE "22 - Riff Interlude.wav" WAVE
    INDEX 01 00:00:00
  TRACK 23 AUDIO
    TITLE "Volcano"
    PERFORMER "Count Basie"
    INDEX 00 03:02:45
FILE "23 - Volcano.wav" WAVE
    INDEX 01 00:00:00
  TRACK 24 AUDIO
    TITLE "Between the Devil and the Deep Blue Sea"
    PERFORMER "Count Basie"
    INDEX 00 02:49:07
FILE "24 - Between the Devil and the Deep Blue Sea.wav" WAVE
    INDEX 01 00:00:00
Приватный:
Нет (DHT включён)
Размер:
251.78 Мб (264,008,754 байт) » файлов: 35
Участники:
0 раздают, 0 качают (0 участников всего)
Внешние участники:
--- [ Обновить ]
No seeders - write personal message to M0p94ok. Any questions - support@pro-jazz.com.
Нет сидеров - пишите в личку M0p94ok. Есть вопросы - support@pro-jazz.com
17:36
91
Нет комментариев. Ваш будет первым!