Поиск

1990 Cab Calloway And His Orchestra - 1931-1932 {The Chronological Classics CC526} [CD]

1990 Cab Calloway And His Orchestra - 1931-1932 {The Chronological Classics CC526} [CD]
Стили:
Дата записи диска:
9 июля 1931 - 7 июня 1932
Издатель (лейбл):
Номер по каталогу:
СС526
Носитель:
CD
Тип рипа:
tracks+.cue
Аудиокодек:
APE (*.ape)
Битрейт аудио:
lossless
Время звучания:
01:07:33
Наличие сканов:
буклет pdf
Релизёр (источник):
Mazeppa
Лог создания рипа
EAC extraction logfile from 13. January 2007, 12:20 for CD
Cab Calloway and His Orchestra / 1931-1932

Used drive  : LITE-ON CD-ROM LTN-527T   Adapter: 1  ID: 1
Read mode   : Secure with NO C2, accurate stream, disable cache
Read offset correction : 12
Overread into Lead-In and Lead-Out : Yes

Used output format : C:\Program Files\Monkey's Audio\MAC.exe   (Monkey's Audio Lossless Encoder)
                     High Lossless Compression

Other options      : 
    Fill up missing offset samples with silence : Yes
    Delete leading and trailing silent blocks : No
    Installed external ASPI interface


Range status and errors
Selected range
     Filename F:\Downloads\Cab Calloway - Classics (1931-1932) [Ape Full Scans]\Cab Calloway and His Orchestra - 1931-1932.wav.wav

     Peak level 100.0 %
     Range quality 100.0 %
     CRC 6D60CDDC
     Copy OK

No errors occured

End of status report
Содержание индексной карты (.CUE)
REM GENRE Jazz
REM DATE 1990
REM DISCID 47107617
REM COMMENT "ExactAudioCopy v0.95b4"
PERFORMER "Cab Calloway and His Orchestra"
TITLE "1931-1932"
FILE "Cab Calloway and His Orchestra - 1931-1932.wav" WAVE
  TRACK 01 AUDIO
    TITLE "It Looks Like Susie"
    PERFORMER "Cab Calloway and His Orchestra"
    INDEX 00 00:00:00
    INDEX 01 00:00:32
  TRACK 02 AUDIO
    TITLE "Sweet Georgia Brown"
    PERFORMER "Cab Calloway and His Orchestra"
    INDEX 01 02:56:27
  TRACK 03 AUDIO
    TITLE "Basin Street Blues"
    PERFORMER "Cab Calloway and His Orchestra"
    INDEX 01 05:32:45
  TRACK 04 AUDIO
    TITLE "Bugle Call Rag"
    PERFORMER "Cab Calloway and His Orchestra"
    INDEX 01 08:29:47
  TRACK 05 AUDIO
    TITLE "You Rascal, You"
    PERFORMER "Cab Calloway and His Orchestra"
    INDEX 01 11:00:62
  TRACK 06 AUDIO
    TITLE "Stardust"
    PERFORMER "Cab Calloway and His Orchestra"
    INDEX 01 14:16:15
  TRACK 07 AUDIO
    TITLE "You Can't Stop Me From Lovin' You"
    PERFORMER "Cab Calloway and His Orchestra"
    INDEX 01 17:44:22
  TRACK 08 AUDIO
    TITLE "You Dog"
    PERFORMER "Cab Calloway and His Orchestra"
    INDEX 01 20:38:22
  TRACK 09 AUDIO
    TITLE "Somebody Stole My Gal"
    PERFORMER "Cab Calloway and His Orchestra"
    INDEX 01 23:37:55
  TRACK 10 AUDIO
    TITLE "Ain't No Gal In This Town"
    PERFORMER "Cab Calloway and His Orchestra"
    INDEX 01 26:28:07
  TRACK 11 AUDIO
    TITLE "Between The Devil And The Deep Blue Sea"
    PERFORMER "Cab Calloway and His Orchestra"
    INDEX 01 29:45:50
  TRACK 12 AUDIO
    TITLE "Trickeration"
    PERFORMER "Cab Calloway and His Orchestra"
    INDEX 01 32:48:00
  TRACK 13 AUDIO
    TITLE "Kickin' The Gong Around"
    PERFORMER "Cab Calloway and His Orchestra"
    INDEX 01 35:44:37
  TRACK 14 AUDIO
    TITLE "Down-Hearted Blues"
    PERFORMER "Cab Calloway and His Orchestra"
    INDEX 01 38:55:60
  TRACK 15 AUDIO
    TITLE "Without Rhythm"
    PERFORMER "Cab Calloway and His Orchestra"
    INDEX 01 41:49:07
  TRACK 16 AUDIO
    TITLE "Corinne Corinna"
    PERFORMER "Cab Calloway and His Orchestra"
    INDEX 01 44:34:07
  TRACK 17 AUDIO
    TITLE "Stack O' Lee Blues"
    PERFORMER "Cab Calloway and His Orchestra"
    INDEX 01 47:38:32
  TRACK 18 AUDIO
    TITLE "The Scat Song"
    PERFORMER "Cab Calloway and His Orchestra"
    INDEX 01 50:43:47
  TRACK 19 AUDIO
    TITLE "Cabin In The Cotton"
    PERFORMER "Cab Calloway and His Orchestra"
    INDEX 01 53:52:30
  TRACK 20 AUDIO
    TITLE "Strictly Cullud Affair"
    PERFORMER "Cab Calloway and His Orchestra"
    INDEX 01 57:56:60
  TRACK 21 AUDIO
    TITLE "Aw You Dawg"
    PERFORMER "Cab Calloway and His Orchestra"
    INDEX 01 61:01:50
  TRACK 22 AUDIO
    TITLE "Minnie The Moocher's Wedding Day"
    PERFORMER "Cab Calloway and His Orchestra"
    INDEX 01 63:50:60
  TRACK 23 AUDIO
    TITLE "Dinah"
    PERFORMER "Cab Calloway and His Orchestra"
    INDEX 01 67:04:35
No seeders - write personal message to M0p94ok. Any questions - support@pro-jazz.com.
Нет сидеров - пишите в личку M0p94ok. Есть вопросы - support@pro-jazz.com
14:53
234
Нет комментариев. Ваш будет первым!