Вы используете незарегистрированную версию компонента "Вкладки"!

Поиск

1990 Benny Carter - 1929-1933 {The Chronological Classics CC522} {CD]

1990 Benny Carter - 1929-1933 {The Chronological Classics CC522} {CD]
Дата записи диска:
18 сентября 1929 - 19 мая 1933
Дата издания диска:
1990
Издатель (лейбл):
Номер по каталогу:
522
Носитель:
CD
Тип рипа:
tracks
Аудиокодек:
FLAC (*.flac)
Битрейт аудио:
lossless
Время звучания:
01:09:33
Наличие сканов:
буклет pdf
Страна-производитель диска (релиза):
France
Релизёр (источник):
Musicgate
Лог создания рипа
EAC extraction logfile from 26. October 2007, 5:27 for CD
Benny Carter / 1929-1933
Used drive  : HL-DT-STCDRW/DVD GCC4482   Adapter: 1  ID: 0
Read mode   : Secure with NO C2, accurate stream, disable cache
Read offset correction : 6
Overread into Lead-In and Lead-Out : No
Used output format : C:\Eac\Codecs\flac.exe   (User Defined Encoder)
                     320 kBit/s
                     Additional command line options : -8 -V -T "artist=%a" -T "title=%t" -T "album=%g" -T "date=%y" -T "tracknumber=%n" -T "genre=%m" -T "comment=EAC Flac 1.1.2 -8" %s
Other options      :
    Fill up missing offset samples with silence : Yes
    Delete leading and trailing silent blocks : No
    Installed external ASPI interface
Track  1
     Filename C:\Documents and Settings\bc\01 - That's How I Feel Today.wav
     Pre-gap length  0:00:02.42
     Peak level 92.9 %
     Track quality 100.0 %
     Test CRC 5917501A
     Copy CRC 5917501A
     Copy OK
Track  2
     Filename C:\Documents and Settings\bc\02 - Six Or Seven Times.wav
     Pre-gap length  0:00:02.40
     Peak level 100.0 %
     Track quality 100.0 %
     Test CRC 8D1A7DBF
     Copy CRC 8D1A7DBF
     Copy OK
Track  3
     Filename C:\Documents and Settings\bc\03 - Goodbye Blues.wav
     Pre-gap length  0:00:03.22
     Peak level 100.0 %
     Track quality 99.9 %
     Test CRC 08B1FB5B
     Copy CRC 08B1FB5B
     Copy OK
Track  4
     Filename C:\Documents and Settings\bc\04 - Cloudy Skies.wav
     Pre-gap length  0:00:02.60
     Peak level 100.0 %
     Track quality 100.0 %
     Test CRC 94173BD2
     Copy CRC 94173BD2
     Copy OK
Track  5
     Filename C:\Documents and Settings\bc\05 - Got Another Sweetie Now.wav
     Pre-gap length  0:00:02.73
     Peak level 92.6 %
     Track quality 100.0 %
     Test CRC 3E3056C7
     Copy CRC 3E3056C7
     Copy OK
Track  6
     Filename C:\Documents and Settings\bc\06 - Bugle Call Rag.wav
     Pre-gap length  0:00:02.60
     Peak level 100.0 %
     Track quality 100.0 %
     Test CRC C2E0E7A8
     Copy CRC C2E0E7A8
     Copy OK
Track  7
     Filename C:\Documents and Settings\bc\07 - Dee Blues.wav
     Pre-gap length  0:00:03.00
     Peak level 95.2 %
     Track quality 100.0 %
     Test CRC BE5287C7
     Copy CRC BE5287C7
     Copy OK
Track  8
     Filename C:\Documents and Settings\bc\08 - Tell All Your Day Dreams To Me.wav
     Pre-gap length  0:00:03.04
     Peak level 71.8 %
     Track quality 100.0 %
     Test CRC 1E966F3E
     Copy CRC 1E966F3E
     Copy OK
Track  9
     Filename C:\Documents and Settings\bc\09 - Swing It.wav
     Pre-gap length  0:00:02.97
     Peak level 100.0 %
     Track quality 100.0 %
     Test CRC 8AD6467A
     Copy CRC 8AD6467A
     Copy OK
Track 10
     Filename C:\Documents and Settings\bc\10 - Synthetic Love.wav
     Pre-gap length  0:00:02.77
     Peak level 100.0 %
     Track quality 100.0 %
     Test CRC 9144B6D0
     Copy CRC 9144B6D0
     Copy OK
Track 11
     Filename C:\Documents and Settings\bc\11 - Six Bells Stampede.wav
     Pre-gap length  0:00:02.36
     Peak level 100.0 %
     Track quality 100.0 %
     Test CRC BF03315D
     Copy CRC BF03315D
     Copy OK
Track 12
     Filename C:\Documents and Settings\bc\12 - Love, You're Not The One For Me.wav
     Pre-gap length  0:00:02.89
     Peak level 94.5 %
     Track quality 100.0 %
     Test CRC 4C8C4A0D
     Copy CRC 4C8C4A0D
     Copy OK
Track 13
     Filename C:\Documents and Settings\bc\13 - Nocturne.wav
     Pre-gap length  0:00:03.06
     Peak level 88.6 %
     Track quality 100.0 %
     Test CRC 5988C043
     Copy CRC 5988C043
     Copy OK
Track 14
     Filename C:\Documents and Settings\bc\14 - Someone Stole Gabriel's Horn.wav
     Pre-gap length  0:00:01.66
     Peak level 89.2 %
     Track quality 100.0 %
     Test CRC 9ACA0B81
     Copy CRC 9ACA0B81
     Copy OK
Track 15
     Filename C:\Documents and Settings\bc\15 - Pastorale.wav
     Pre-gap length  0:00:01.73
     Peak level 86.8 %
     Track quality 100.0 %
     Test CRC FFA08B77
     Copy CRC FFA08B77
     Copy OK
Track 16
     Filename C:\Documents and Settings\bc\16 - Bugle Call Rag.wav
     Pre-gap length  0:00:01.40
     Peak level 88.3 %
     Track quality 100.0 %
     Test CRC 4AB68A2A
     Copy CRC 4AB68A2A
     Copy OK
Track 17
     Filename C:\Documents and Settings\bc\17 - Arabesque.wav
     Pre-gap length  0:00:01.90
     Peak level 81.1 %
     Track quality 100.0 %
     Test CRC F711EA41
     Copy CRC F711EA41
     Copy OK
Track 18
     Filename C:\Documents and Settings\bc\18 - Fanfare.wav
     Pre-gap length  0:00:01.20
     Peak level 100.0 %
     Track quality 100.0 %
     Test CRC C1508714
     Copy CRC C1508714
     Copy OK
Track 19
     Filename C:\Documents and Settings\bc\19 - Sweet Sorrow Blues.wav
     Pre-gap length  0:00:01.53
     Peak level 94.9 %
     Track quality 100.0 %
     Test CRC 8CC48D85
     Copy CRC 8CC48D85
     Copy OK
Track 20
     Filename C:\Documents and Settings\bc\20 - Mucic At Midnight.wav
     Pre-gap length  0:00:01.84
     Peak level 99.4 %
     Track quality 100.0 %
     Test CRC D4E182EE
     Copy CRC D4E182EE
     Copy OK
Track 21
     Filename C:\Documents and Settings\bc\21 - Sweet Sue - Just You.wav
     Pre-gap length  0:00:01.49
     Peak level 89.9 %
     Track quality 100.0 %
     Test CRC 9008F6D2
     Copy CRC 9008F6D2
     Copy OK
Track 22
     Filename C:\Documents and Settings\bc\22 - Air In D Flat.wav
     Pre-gap length  0:00:01.73
     Peak level 89.0 %
     Track quality 100.0 %
     Test CRC 14E298ED
     Copy CRC 14E298ED
     Copy OK
Track 23
     Filename C:\Documents and Settings\bc\23 - Donegal Cradle Song.wav
     Pre-gap length  0:00:01.17
     Peak level 79.7 %
     Track quality 100.0 %
     Test CRC 0AEF341A
     Copy CRC 0AEF341A
     Copy OK
No errors occured
End of status report
Лог проверки качества
367317751 32111900 01 - That's How I Feel Today.wav
2235874945 36143228 02 - Six Or Seven Times.wav
2830540545 35432924 03 - Goodbye Blues.wav
1173168229 31465100 04 - Cloudy Skies.wav
3838938183 32250668 05 - Got Another Sweetie Now.wav
4110276183 30653660 06 - Bugle Call Rag.wav
1381138599 31599164 07 - Dee Blues.wav
604995601 31399244 08 - Tell All Your Day Dreams To Me.wav
3252368316 34315724 09 - Swing It.wav
3953019379 36895868 10 - Synthetic Love.wav
3734166931 28847324 11 - Six Bells Stampede.wav
625570969 38285900 12 - Love, You're Not The One For Me.wav
3145385690 31792028 13 - Nocturne.wav
2406266485 32946860 14 - Someone Stole Gabriel's Horn.wav
2192137381 34038188 15 - Pastorale.wav
3382451837 30665420 16 - Bugle Call Rag.wav
2988717972 32650508 17 - Arabesque.wav
3143611728 30881804 18 - Fanfare.wav
4156863636 32629340 19 - Sweet Sorrow Blues.wav
3394379052 29063708 20 - Mucic At Midnight.wav
1985959750 32257724 21 - Sweet Sue - Just You.wav
1374582642 32123660 22 - Air In D Flat.wav
2530970372 32022524 23 - Donegal Cradle Song.wav
auCDtect: CD records authenticity detector, version 0.8.2
Copyright (c) 2004 Oleg Berngardt. All rights reserved.
Copyright (c) 2004 Alexander Djourik. All rights reserved.
------------------------------------------------------------
Processing file: [01 - That's How I Feel Today.wav]
------------------------------------------------------------
This track looks like CDDA with probability 100%
------------------------------------------------------------
Processing file: [02 - Six Or Seven Times.wav]
------------------------------------------------------------
This track looks like CDDA with probability 100%
------------------------------------------------------------
Processing file: [03 - Goodbye Blues.wav]
------------------------------------------------------------
This track looks like CDDA with probability 100%
------------------------------------------------------------
Processing file: [04 - Cloudy Skies.wav]
------------------------------------------------------------
This track looks like CDDA with probability 100%
------------------------------------------------------------
Processing file: [05 - Got Another Sweetie Now.wav]
------------------------------------------------------------
This track looks like CDDA with probability 100%
------------------------------------------------------------
Processing file: [06 - Bugle Call Rag.wav]
------------------------------------------------------------
This track looks like CDDA with probability 100%
------------------------------------------------------------
Processing file: [07 - Dee Blues.wav]
------------------------------------------------------------
This track looks like CDDA with probability 100%
------------------------------------------------------------
Processing file: [08 - Tell All Your Day Dreams To Me.wav]
------------------------------------------------------------
This track looks like MPEG with probability 92%
------------------------------------------------------------
Processing file: [09 - Swing It.wav]
------------------------------------------------------------
This track looks like CDDA with probability 100%
------------------------------------------------------------
Processing file: [10 - Synthetic Love.wav]
------------------------------------------------------------
This track looks like CDDA with probability 100%
------------------------------------------------------------
Processing file: [11 - Six Bells Stampede.wav]
------------------------------------------------------------
This track looks like CDDA with probability 100%
------------------------------------------------------------
Processing file: [12 - Love, You're Not The One For Me.wav]
------------------------------------------------------------
This track looks like CDDA with probability 100%
------------------------------------------------------------
Processing file: [13 - Nocturne.wav]
------------------------------------------------------------
This track looks like CDDA with probability 100%
------------------------------------------------------------
Processing file: [14 - Someone Stole Gabriel's Horn.wav]
------------------------------------------------------------
This track looks like CDDA with probability 100%
------------------------------------------------------------
Processing file: [15 - Pastorale.wav]
------------------------------------------------------------
This track looks like CDDA with probability 100%
------------------------------------------------------------
Processing file: [16 - Bugle Call Rag.wav]
------------------------------------------------------------
This track looks like CDDA with probability 100%
------------------------------------------------------------
Processing file: [17 - Arabesque.wav]
------------------------------------------------------------
This track looks like CDDA with probability 100%
------------------------------------------------------------
Processing file: [18 - Fanfare.wav]
------------------------------------------------------------
This track looks like CDDA with probability 100%
------------------------------------------------------------
Processing file: [19 - Sweet Sorrow Blues.wav]
------------------------------------------------------------
This track looks like CDDA with probability 100%
------------------------------------------------------------
Processing file: [20 - Mucic At Midnight.wav]
------------------------------------------------------------
This track looks like CDDA with probability 100%
------------------------------------------------------------
Processing file: [21 - Sweet Sue - Just You.wav]
------------------------------------------------------------
This track looks like CDDA with probability 100%
------------------------------------------------------------
Processing file: [22 - Air In D Flat.wav]
------------------------------------------------------------
This track looks like CDDA with probability 100%
------------------------------------------------------------
Processing file: [23 - Donegal Cradle Song.wav]
------------------------------------------------------------
This track looks like CDDA with probability 100%
------------------------------------------------------------
Final Conclusion:
------------------------------------------------------------
These tracks looks like CDDA with probability 100%
Any questions - support@pro-jazz.com. Есть вопросы - support@pro-jazz.com
10:34
316
Нет комментариев. Ваш будет первым!