Поиск

1989 The American Jazz Orchestra - Ellington Masterpieces {EastWest} [CD]

1989 The American Jazz Orchestra - Ellington Masterpieces {EastWest} [CD]
Стили:
Дата записи диска:
21 ноября - 23 ноября 1988
Место записи:
Atlantic Studios, New York City, NY, USA
Номер по каталогу:
7 91423-2
Носитель:
CD
Тип рипа:
tracks+.cue
Аудиокодек:
FLAC (*.flac)
Битрейт аудио:
lossless
Время звучания:
00:56:23
Наличие сканов:
только обложка
Страна-производитель диска (релиза):
USA
Релизёр (источник):
Yungin

Треклист:

01. Sepia Panorama (Strayhorn) - 3:43
02. Johnny Come Lately (Strayhorn) - 3:29
03. All Too Soon (Sigman-Ellington) - 4:07
04. Ko-Ko (Ellington) - 2:48
05. Chloe (Daniels-Kahn) - 3:52
06. Bojangles (Ellington) - 4:05
07. Cotton Tail (Ellington) - 3:49
08. Warm Valley (Ellington) - 4:09
09. Sidewalks of New York (Trad.) - 3:33
10. Main Stem (Ellington) - 2:53
11. Jack the Bear (Ellington) - 3:43
12. Take the "A" Train (Strayhorn) - 3:16
13. Concerto for Cootie (Williams-Fraser) - 3:39
14. Conga Brava (Ellington-Tizol) - 3:23
15. Rockin' in Rhythm (Ellington-Mills-Carney) - 5:54

Лог создания рипа
Exact Audio Copy V1.5 from 20. February 2020

EAC extraction logfile from 27. July 2020, 17:07

American Jazz Orchestra / Ellington Masterpieces

Used drive  : PHILIPS CDRW/DVD SCB5265   Adapter: 1  ID: 0

Read mode               : Secure
Utilize accurate stream : Yes
Defeat audio cache      : Yes
Make use of C2 pointers : No

Read offset correction                      : 6
Overread into Lead-In and Lead-Out          : No
Fill up missing offset samples with silence : Yes
Delete leading and trailing silent blocks   : No
Null samples used in CRC calculations       : Yes
Used interface                              : Native Win32 interface for Win NT & 2000
Gap handling                                : Appended to previous track

Used output format              : User Defined Encoder
Selected bitrate                : 1024 kBit/s
Quality                         : High
Add ID3 tag                     : No
Command line compressor         : C:\Program Files (x86)\Exact Audio Copy\Flac\flac.exe
Additional command line options : -8 -V -T "ARTIST=%artist%" -T "TITLE=%title%" -T "ALBUM=%albumtitle%" -T "DATE=%year%" -T "TRACKNUMBER=%tracknr%" -T "GENRE=%genre%" -T "PERFORMER=%albuminterpret%" -T "COMPOSER=%composer%" -T "ALBUMARTIST=%albumartist%" -T "DISCNUMBER=%cdnumber%" -T "TOTALDISCS=%totalcds%" -T "TOTALTRACKS=%numtracks%" -T "COMMENT=%comment%" %source% -o %dest%

TOC of the extracted CD

     Track |   Start  |  Length  | Start sector | End sector
    ---------------------------------------------------------
        1  |  0:00.32 |  3:43.28 |        32    |    16784
        2  |  3:43.60 |  3:28.65 |     16785    |    32449
        3  |  7:12.50 |  4:06.70 |     32450    |    50969
        4  | 11:19.45 |  2:48.00 |     50970    |    63569
        5  | 14:07.45 |  3:51.47 |     63570    |    80941
        6  | 17:59.17 |  4:04.45 |     80942    |    99286
        7  | 22:03.62 |  3:48.45 |     99287    |   116431
        8  | 25:52.32 |  4:08.73 |    116432    |   135104
        9  | 30:01.30 |  3:32.55 |    135105    |   151059
       10  | 33:34.10 |  2:53.00 |    151060    |   164034
       11  | 36:27.10 |  3:42.45 |    164035    |   180729
       12  | 40:09.55 |  3:15.47 |    180730    |   195401
       13  | 43:25.27 |  3:38.38 |    195402    |   211789
       14  | 47:03.65 |  3:23.05 |    211790    |   227019
       15  | 50:26.70 |  5:54.15 |    227020    |   253584

Track  1

     Filename Z:\Music\American Jazz Orchestra - Ellington Masterpieces (1989) [FLAC] {7 91423-2}\01 - Sepia Panorama.wav

     Pre-gap length  0:00:02.42

     Peak level 95.5 %
     Extraction speed 1.1 X
     Track quality 100.0 %
     Test CRC 34B46862
     Copy CRC 34B46862
     Accurately ripped (confidence 7)  [DE42C34C]  (AR v2)
     Copy OK

Track  2

     Filename Z:\Music\American Jazz Orchestra - Ellington Masterpieces (1989) [FLAC] {7 91423-2}\02 - Johnny Come Lately.wav

     Pre-gap length  0:00:02.66

     Peak level 100.0 %
     Extraction speed 1.2 X
     Track quality 100.0 %
     Test CRC 14160384
     Copy CRC 14160384
     Accurately ripped (confidence 7)  [D7306D29]  (AR v2)
     Copy OK

Track  3

     Filename Z:\Music\American Jazz Orchestra - Ellington Masterpieces (1989) [FLAC] {7 91423-2}\03 - All Too Soon.wav

     Pre-gap length  0:00:02.66

     Peak level 100.0 %
     Extraction speed 1.4 X
     Track quality 100.0 %
     Test CRC C6C7BC06
     Copy CRC C6C7BC06
     Accurately ripped (confidence 7)  [F2DF2341]  (AR v2)
     Copy OK

Track  4

     Filename Z:\Music\American Jazz Orchestra - Ellington Masterpieces (1989) [FLAC] {7 91423-2}\04 - Ko-Ko.wav

     Pre-gap length  0:00:02.66

     Peak level 95.5 %
     Extraction speed 1.2 X
     Track quality 99.9 %
     Test CRC B37B4846
     Copy CRC B37B4846
     Accurately ripped (confidence 7)  [2AA631D8]  (AR v2)
     Copy OK

Track  5

     Filename Z:\Music\American Jazz Orchestra - Ellington Masterpieces (1989) [FLAC] {7 91423-2}\05 - Chloe.wav

     Pre-gap length  0:00:02.66

     Peak level 97.2 %
     Extraction speed 1.6 X
     Track quality 100.0 %
     Test CRC 567E7E88
     Copy CRC 567E7E88
     Accurately ripped (confidence 7)  [EEC085F9]  (AR v2)
     Copy OK

Track  6

     Filename Z:\Music\American Jazz Orchestra - Ellington Masterpieces (1989) [FLAC] {7 91423-2}\06 - Bojangles.wav

     Pre-gap length  0:00:01.66

     Peak level 96.0 %
     Extraction speed 1.7 X
     Track quality 100.0 %
     Test CRC AF4D4D24
     Copy CRC AF4D4D24
     Accurately ripped (confidence 7)  [31CA6D8A]  (AR v2)
     Copy OK

Track  7

     Filename Z:\Music\American Jazz Orchestra - Ellington Masterpieces (1989) [FLAC] {7 91423-2}\07 - Cotton Tail.wav

     Pre-gap length  0:00:02.66

     Peak level 95.5 %
     Extraction speed 1.8 X
     Track quality 100.0 %
     Test CRC 49F5547A
     Copy CRC 49F5547A
     Accurately ripped (confidence 7)  [7132CF00]  (AR v2)
     Copy OK

Track  8

     Filename Z:\Music\American Jazz Orchestra - Ellington Masterpieces (1989) [FLAC] {7 91423-2}\08 - Warm Valley.wav

     Pre-gap length  0:00:02.66

     Peak level 97.8 %
     Extraction speed 1.7 X
     Track quality 99.9 %
     Test CRC 852D941E
     Copy CRC 852D941E
     Accurately ripped (confidence 7)  [0E3A77F1]  (AR v2)
     Copy OK

Track  9

     Filename Z:\Music\American Jazz Orchestra - Ellington Masterpieces (1989) [FLAC] {7 91423-2}\09 - Sidewalks of New York.wav

     Pre-gap length  0:00:01.97

     Peak level 97.7 %
     Extraction speed 1.9 X
     Track quality 100.0 %
     Test CRC 05B367B0
     Copy CRC 05B367B0
     Accurately ripped (confidence 7)  [8BEB77CD]  (AR v2)
     Copy OK

Track 10

     Filename Z:\Music\American Jazz Orchestra - Ellington Masterpieces (1989) [FLAC] {7 91423-2}\10 - Main Stem.wav

     Pre-gap length  0:00:02.66

     Peak level 100.0 %
     Extraction speed 1.6 X
     Track quality 99.9 %
     Test CRC F8DBE077
     Copy CRC F8DBE077
     Accurately ripped (confidence 7)  [05720864]  (AR v2)
     Copy OK

Track 11

     Filename Z:\Music\American Jazz Orchestra - Ellington Masterpieces (1989) [FLAC] {7 91423-2}\11 - Jack the Bear.wav

     Pre-gap length  0:00:02.66

     Peak level 97.7 %
     Extraction speed 2.0 X
     Track quality 100.0 %
     Test CRC D9170934
     Copy CRC D9170934
     Accurately ripped (confidence 7)  [C45557C1]  (AR v2)
     Copy OK

Track 12

     Filename Z:\Music\American Jazz Orchestra - Ellington Masterpieces (1989) [FLAC] {7 91423-2}\12 - Take the ''A'' Train.wav

     Pre-gap length  0:00:02.66

     Peak level 95.5 %
     Extraction speed 2.1 X
     Track quality 100.0 %
     Test CRC 720316FD
     Copy CRC 720316FD
     Accurately ripped (confidence 7)  [FE8B5CA3]  (AR v2)
     Copy OK

Track 13

     Filename Z:\Music\American Jazz Orchestra - Ellington Masterpieces (1989) [FLAC] {7 91423-2}\13 - Concerto for Cootie.wav

     Pre-gap length  0:00:02.62

     Peak level 95.5 %
     Extraction speed 2.2 X
     Track quality 100.0 %
     Test CRC 6503A5BF
     Copy CRC 6503A5BF
     Accurately ripped (confidence 7)  [4145EEEE]  (AR v2)
     Copy OK

Track 14

     Filename Z:\Music\American Jazz Orchestra - Ellington Masterpieces (1989) [FLAC] {7 91423-2}\14 - Conga Brava.wav

     Pre-gap length  0:00:02.66

     Peak level 95.5 %
     Extraction speed 2.2 X
     Track quality 100.0 %
     Test CRC 399C0F45
     Copy CRC 399C0F45
     Accurately ripped (confidence 7)  [924B57FA]  (AR v2)
     Copy OK

Track 15

     Filename Z:\Music\American Jazz Orchestra - Ellington Masterpieces (1989) [FLAC] {7 91423-2}\15 - Rockin' in Rhythm.wav

     Pre-gap length  0:00:02.66

     Peak level 91.2 %
     Extraction speed 2.4 X
     Track quality 100.0 %
     Test CRC 48D526AA
     Copy CRC 48D526AA
     Accurately ripped (confidence 7)  [FFF14DF1]  (AR v2)
     Copy OK

All tracks accurately ripped

No errors occurred

End of status report

---- CUETools DB Plugin V2.1.6

[CTDB TOCID: Ql6T5tQ3gl0lkxzt7.iy87KldUY-] found
Submit result: Ql6T5tQ3gl0lkxzt7.iy87KldUY- has been confirmed
Track | CTDB Status
  1   | (4/4) Accurately ripped
  2   | (4/4) Accurately ripped
  3   | (4/4) Accurately ripped
  4   | (4/4) Accurately ripped
  5   | (4/4) Accurately ripped
  6   | (4/4) Accurately ripped
  7   | (4/4) Accurately ripped
  8   | (4/4) Accurately ripped
  9   | (4/4) Accurately ripped
 10   | (4/4) Accurately ripped
 11   | (4/4) Accurately ripped
 12   | (4/4) Accurately ripped
 13   | (4/4) Accurately ripped
 14   | (4/4) Accurately ripped
 15   | (4/4) Accurately ripped

==== Log checksum 615BE120B2C8E6C03746B0A698C28E5BE3AD29F6DE795133EDDE9522A2A51505 ====
Содержание индексной карты (.CUE)
REM GENRE Jazz
REM DATE 1989
REM DISCID BC0D350F
REM COMMENT "ExactAudioCopy v1.5"
CATALOG 0075679142320
PERFORMER "John Lewis & The American Jazz Orchestra"
TITLE "Ellington Masterpieces"
FILE "01 - Sepia Panorama.wav" WAVE
  TRACK 01 AUDIO
    TITLE "Sepia Panorama"
    PERFORMER "John Lewis & The American Jazz Orchestra"
    PREGAP 00:00:32
    INDEX 01 00:00:00
  TRACK 02 AUDIO
    TITLE "Johnny Come Lately"
    PERFORMER "John Lewis & The American Jazz Orchestra"
    INDEX 00 03:40:53
FILE "02 - Johnny Come Lately.wav" WAVE
    INDEX 01 00:00:00
  TRACK 03 AUDIO
    TITLE "All Too Soon"
    PERFORMER "John Lewis & The American Jazz Orchestra"
    INDEX 00 03:26:15
FILE "03 - All Too Soon.wav" WAVE
    INDEX 01 00:00:00
  TRACK 04 AUDIO
    TITLE "Ko-Ko"
    PERFORMER "John Lewis & The American Jazz Orchestra"
    INDEX 00 04:04:20
FILE "04 - Ko-Ko.wav" WAVE
    INDEX 01 00:00:00
  TRACK 05 AUDIO
    TITLE "Chloe"
    PERFORMER "John Lewis & The American Jazz Orchestra"
    INDEX 00 02:45:25
FILE "05 - Chloe.wav" WAVE
    INDEX 01 00:00:00
  TRACK 06 AUDIO
    TITLE "Bojangles"
    PERFORMER "John Lewis & The American Jazz Orchestra"
    INDEX 00 03:49:72
FILE "06 - Bojangles.wav" WAVE
    INDEX 01 00:00:00
  TRACK 07 AUDIO
    TITLE "Cotton Tail"
    PERFORMER "John Lewis & The American Jazz Orchestra"
    INDEX 00 04:01:70
FILE "07 - Cotton Tail.wav" WAVE
    INDEX 01 00:00:00
  TRACK 08 AUDIO
    TITLE "Warm Valley"
    PERFORMER "John Lewis & The American Jazz Orchestra"
    INDEX 00 03:45:70
FILE "08 - Warm Valley.wav" WAVE
    INDEX 01 00:00:00
  TRACK 09 AUDIO
    TITLE "Sidewalks of New York"
    PERFORMER "John Lewis & The American Jazz Orchestra"
    INDEX 00 04:07:00
FILE "09 - Sidewalks of New York.wav" WAVE
    INDEX 01 00:00:00
  TRACK 10 AUDIO
    TITLE "Main Stem"
    PERFORMER "John Lewis & The American Jazz Orchestra"
    INDEX 00 03:30:05
FILE "10 - Main Stem.wav" WAVE
    INDEX 01 00:00:00
  TRACK 11 AUDIO
    TITLE "Jack the Bear"
    PERFORMER "John Lewis & The American Jazz Orchestra"
    INDEX 00 02:50:25
FILE "11 - Jack the Bear.wav" WAVE
    INDEX 01 00:00:00
  TRACK 12 AUDIO
    TITLE "Take the 'A' Train"
    PERFORMER "John Lewis & The American Jazz Orchestra"
    INDEX 00 03:39:70
FILE "12 - Take the 'A' Train.wav" WAVE
    INDEX 01 00:00:00
  TRACK 13 AUDIO
    TITLE "Concerto for Cootie"
    PERFORMER "John Lewis & The American Jazz Orchestra"
    INDEX 00 03:13:00
FILE "13 - Concerto for Cootie.wav" WAVE
    INDEX 01 00:00:00
  TRACK 14 AUDIO
    TITLE "Conga Brava"
    PERFORMER "John Lewis & The American Jazz Orchestra"
    INDEX 00 03:35:63
FILE "14 - Conga Brava.wav" WAVE
    INDEX 01 00:00:00
  TRACK 15 AUDIO
    TITLE "Rockin' in Rhythm"
    PERFORMER "John Lewis & The American Jazz Orchestra"
    INDEX 00 03:20:30
FILE "15 - Rockin' in Rhythm.wav" WAVE
    INDEX 01 00:00:00
Приватный:
Нет (DHT включён)
Размер:
319.50 Мб (335,020,332 байт) » файлов: 20
Участники:
0 раздают, 0 качают (0 участников всего)
Внешние участники:
3 раздают, 1 качают (4 участников всего) [ Обновить ]
No seeders - write personal message to M0p94ok. Нет сидеров - пишите в личку M0p94ok.
13:05
54
Нет комментариев. Ваш будет первым!