Поиск

1988 Jay Azzolina - Never Too Late {Antilles New Directions ANCD 8729}

1988 Jay Azzolina - Never Too Late {Antilles New Directions ANCD 8729}
Стили:
Дата записи диска:
декабрь 1987 - январь 1988
Издатель (лейбл):
Номер по каталогу:
ANCD 8729
Носитель:
CD
Битрейт аудио:
lossless
Аудиокодек:
FLAC (*.flac)
Тип рипа:
tracks+.cue
Время звучания:
46:20
Наличие сканов:
  • нет
Релизёр (источник):
fogelsong
Лог создания рипа
Exact Audio Copy V1.3 from 2. September 2016

EAC extraction logfile from 10. February 2018, 17:05

Jay Azzolina / Never Too Late

Used drive  : ASUS    DRW-24B1ST   j   Adapter: 1  ID: 0

Read mode               : Secure
Utilize accurate stream : Yes
Defeat audio cache      : Yes
Make use of C2 pointers : No

Read offset correction                      : 6
Overread into Lead-In and Lead-Out          : No
Fill up missing offset samples with silence : Yes
Delete leading and trailing silent blocks   : No
Null samples used in CRC calculations       : Yes
Used interface                              : Native Win32 interface for Win NT & 2000
Gap handling                                : Appended to previous track

Used output format              : User Defined Encoder
Selected bitrate                : 896 kBit/s
Quality                         : High
Add ID3 tag                     : No
Command line compressor         : C:\Program Files (x86)\Exact Audio Copy\Flac\flac.exe
Additional command line options : -8 -e -p -V -T "ARTIST=%artist%" -T "TITLE=%title%" -T "ALBUM=%albumtitle%" -T "DATE=%year%" -T "TRACKNUMBER=%tracknr%" -T "DISCNUMBER=%cdnumber%" -T "TOTALDISCS=%totalcds%" -T "TOTALTRACKS=%numtracks%" %source% -o %dest%

TOC of the extracted CD

     Track |   Start  |  Length  | Start sector | End sector
    ---------------------------------------------------------
        1  |  0:00.32 |  5:05.10 |        32    |    22916
        2  |  5:05.42 |  5:56.63 |     22917    |    49679
        3  | 11:02.30 |  5:47.42 |     49680    |    75746
        4  | 16:49.72 |  7:50.35 |     75747    |   111031
        5  | 24:40.32 |  4:03.03 |    111032    |   129259
        6  | 28:43.35 |  6:23.45 |    129260    |   158029
        7  | 35:07.05 |  5:16.45 |    158030    |   181774
        8  | 40:23.50 |  5:55.72 |    181775    |   208471

Track  1

     Filename C:\EAC\Jay Azzolina - Never Too Late (1988) [FLAC]\01 - Three Finger Slice.wav

     Pre-gap length  0:00:02.42

     Peak level 91.0 %
     Extraction speed 4.6 X
     Track quality 99.9 %
     Test CRC B4A22894
     Copy CRC B4A22894
     Accurately ripped (confidence 2)  [72F13A8E]  (AR v2)
     Copy OK

Track  2

     Filename C:\EAC\Jay Azzolina - Never Too Late (1988) [FLAC]\02 - Preachers Day Off.wav

     Pre-gap length  0:00:02.56

     Peak level 86.2 %
     Extraction speed 6.1 X
     Track quality 100.0 %
     Test CRC 0A64EC1C
     Copy CRC 0A64EC1C
     Accurately ripped (confidence 2)  [E4299C31]  (AR v2)
     Copy OK

Track  3

     Filename C:\EAC\Jay Azzolina - Never Too Late (1988) [FLAC]\03 - Speaking Guide.wav

     Pre-gap length  0:00:02.40

     Peak level 90.2 %
     Extraction speed 6.0 X
     Track quality 99.9 %
     Test CRC F3B4FA02
     Copy CRC F3B4FA02
     Accurately ripped (confidence 2)  [16AE18EE]  (AR v2)
     Copy OK

Track  4

     Filename C:\EAC\Jay Azzolina - Never Too Late (1988) [FLAC]\04 - Minds Eye.wav

     Pre-gap length  0:00:01.82

     Peak level 97.9 %
     Extraction speed 7.0 X
     Track quality 99.9 %
     Test CRC EDA01A14
     Copy CRC EDA01A14
     Accurately ripped (confidence 2)  [2BA3D287]  (AR v2)
     Copy OK

Track  5

     Filename C:\EAC\Jay Azzolina - Never Too Late (1988) [FLAC]\05 - Jilly's Bounce.wav

     Pre-gap length  0:00:02.69

     Peak level 95.4 %
     Extraction speed 6.5 X
     Track quality 99.9 %
     Test CRC 1598C0BA
     Copy CRC 1598C0BA
     Accurately ripped (confidence 2)  [C99961D1]  (AR v2)
     Copy OK

Track  6

     Filename C:\EAC\Jay Azzolina - Never Too Late (1988) [FLAC]\06 - Her First Waltz.wav

     Pre-gap length  0:00:01.50

     Peak level 67.0 %
     Extraction speed 8.6 X
     Track quality 100.0 %
     Test CRC 97BF58D0
     Copy CRC 97BF58D0
     Accurately ripped (confidence 2)  [DD580F9F]  (AR v2)
     Copy OK

Track  7

     Filename C:\EAC\Jay Azzolina - Never Too Late (1988) [FLAC]\07 - Half Of Everything.wav

     Pre-gap length  0:00:01.44

     Peak level 91.9 %
     Extraction speed 8.9 X
     Track quality 100.0 %
     Test CRC 8EB0CEF6
     Copy CRC 8EB0CEF6
     Accurately ripped (confidence 2)  [85FD7B90]  (AR v2)
     Copy OK

Track  8

     Filename C:\EAC\Jay Azzolina - Never Too Late (1988) [FLAC]\08 - From J To Z.wav

     Pre-gap length  0:00:02.60

     Peak level 91.2 %
     Extraction speed 9.5 X
     Track quality 100.0 %
     Test CRC 91D4D042
     Copy CRC 91D4D042
     Accurately ripped (confidence 2)  [BD025A1F]  (AR v2)
     Copy OK

All tracks accurately ripped

No errors occurred

End of status report

---- CUETools DB Plugin V2.1.6

[CTDB TOCID: hFv8wb2N6_aZazNs7GV3BcLI6cU-] found
Submit result: hFv8wb2N6_aZazNs7GV3BcLI6cU- has been confirmed
Track | CTDB Status
  1   | (2/2) Accurately ripped
  2   | (2/2) Accurately ripped
  3   | (2/2) Accurately ripped
  4   | (2/2) Accurately ripped
  5   | (2/2) Accurately ripped
  6   | (2/2) Accurately ripped
  7   | (2/2) Accurately ripped
  8   | (2/2) Accurately ripped

==== Log checksum C2127FED24F4B0B297CCC3E5987E50A672D62D24ABB25ED59AB568095910FF44 ====
Содержание индексной карты (.CUE)
REM GENRE Jazz
REM DATE 1988
REM DISCID 560ADB08
REM COMMENT "ExactAudioCopy v1.3"
CATALOG 0075679096623
PERFORMER "Jay Azzolina"
TITLE "Never Too Late"
FILE "01 - Three Finger Slice.wav" WAVE
  TRACK 01 AUDIO
    TITLE "Three Finger Slice"
    PERFORMER "Jay Azzolina"
    PREGAP 00:00:32
    INDEX 01 00:00:00
  TRACK 02 AUDIO
    TITLE "Preachers Day Off"
    PERFORMER "Jay Azzolina"
    INDEX 00 05:02:43
FILE "02 - Preachers Day Off.wav" WAVE
    INDEX 01 00:00:00
  TRACK 03 AUDIO
    TITLE "Speaking Guide"
    PERFORMER "Jay Azzolina"
    INDEX 00 05:54:33
FILE "03 - Speaking Guide.wav" WAVE
    INDEX 01 00:00:00
  TRACK 04 AUDIO
    TITLE "Minds Eye"
    PERFORMER "Jay Azzolina"
    INDEX 00 05:45:55
FILE "04 - Minds Eye.wav" WAVE
    INDEX 01 00:00:00
  TRACK 05 AUDIO
    TITLE "Jilly's Bounce"
    PERFORMER "Jay Azzolina"
    INDEX 00 07:47:58
FILE "05 - Jilly's Bounce.wav" WAVE
    INDEX 01 00:00:00
  TRACK 06 AUDIO
    TITLE "Her First Waltz"
    PERFORMER "Jay Azzolina"
    INDEX 00 04:01:40
FILE "06 - Her First Waltz.wav" WAVE
    INDEX 01 00:00:00
  TRACK 07 AUDIO
    TITLE "Half of Everything"
    PERFORMER "Jay Azzolina"
    INDEX 00 06:22:12
FILE "07 - Half of Everything.wav" WAVE
    INDEX 01 00:00:00
  TRACK 08 AUDIO
    TITLE "From J to Z"
    PERFORMER "Jay Azzolina"
    INDEX 00 05:14:00
FILE "08 - From J to Z.wav" WAVE
    INDEX 01 00:00:00
Лог проверки качества
[CUETools log; Date: 13.02.2018 0:35:56; Version: 2.1.5]
Pregap length 00:00:32.
[CTDB TOCID: hFv8wb2N6_aZazNs7GV3BcLI6cU-] found.
Track | CTDB Status
  1   | (3/3) Accurately ripped
  2   | (3/3) Accurately ripped
  3   | (3/3) Accurately ripped
  4   | (3/3) Accurately ripped
  5   | (3/3) Accurately ripped
  6   | (3/3) Accurately ripped
  7   | (3/3) Accurately ripped
  8   | (3/3) Accurately ripped
[AccurateRip ID: 000e4bf1-005f99b8-560adb08] found.
Track   [  CRC   |   V2   ] Status
 01     [4f21f567|72f13a8e] (0+2/2) Accurately ripped
 02     [73bf60fe|e4299c31] (0+2/2) Accurately ripped
 03     [251e74dc|16ae18ee] (0+2/2) Accurately ripped
 04     [8886c8db|2ba3d287] (0+2/2) Accurately ripped
 05     [85f8f0db|c99961d1] (0+2/2) Accurately ripped
 06     [dad17836|dd580f9f] (0+2/2) Accurately ripped
 07     [b0cb8017|85fd7b90] (0+2/2) Accurately ripped
 08     [8e5fc8e1|bd025a1f] (0+2/2) Accurately ripped

Track Peak [ CRC32  ] [W/O NULL] [  LOG   ]
 --   97,9 [1DCED4C0] [6EF3623A]
 01   91,0 [B4A22894] [C1CB4BFC]   CRC32
 02   86,2 [0A64EC1C] [41D178CA]   CRC32
 03   90,2 [F3B4FA02] [08ABE6A0]   CRC32
 04   97,9 [EDA01A14] [AF83BF28]   CRC32
 05   95,4 [1598C0BA] [CB0B4F43]   CRC32
 06   67,0 [97BF58D0] [27772D23]   CRC32
 07   91,9 [8EB0CEF6] [D0B9C023]   CRC32
 08   91,2 [91D4D042] [B6FCE8B3]   CRC32
Приватный:
Нет (DHT включён)
Размер:
254.23 Мб (266,583,128 байт) » файлов: 15
Участники:
1 раздают, 0 качают (1 участников всего)
Внешние участники:
5 раздают, 2 качают (7 участников всего) [ Обновить ]
Скорость:
0/c 11.76 Кб/c
00:18
84
RSS
Нет комментариев. Ваш будет первым!