Поиск

1988 Charlie Parker - Bird {Columbia 4610022} Original Soundtrack

1988 Charlie Parker - Bird {Columbia 4610022} Original Soundtrack
Дата издания диска:
1988
Издатель (лейбл):
Номер по каталогу:
4610022
Носитель:
CD
Аудиокодек:
FLAC (*.flac)
Тип рипа:
tracks+.cue
Битрейт аудио:
1
Время звучания:
00:41:52
Релизёр (источник):
samoeONO
Состав:
Лог создания рипа
Exact Audio Copy V0.99 prebeta 4 from 23. January 2008

EAC extraction logfile from 18. December 2009, 10:28

Charlie Parker / Bird - Warner 1988

Used drive  : HL-DT-STDVDRAM GH20NS10   Adapter: 1  ID: 0

Read mode               : Secure
Utilize accurate stream : Yes
Defeat audio cache      : Yes
Make use of C2 pointers : No

Read offset correction                      : 667
Overread into Lead-In and Lead-Out          : No
Fill up missing offset samples with silence : Yes
Delete leading and trailing silent blocks   : No
Null samples used in CRC calculations       : Yes
Used interface                              : Native Win32 interface for Win NT & 2000
Gap handling                                : Appended to previous track

Used output format              : User Defined Encoder
Selected bitrate                : 1024 kBit/s
Quality                         : High
Add ID3 tag                     : No
Command line compressor         : C:\Program Files\Exact Audio Copy\FLAC\FLAC.EXE
Additional command line options : -6 -V -T "ARTIST=%a" -T "TITLE=%t" -T "ALBUM=%g" -T "DATE=%y" -T "TRACKNUMBER=%n" -T "GENRE=%m" -T "COMMENT=%e" %s -o %d

TOC of the extracted CD

     Track |   Start  |  Length  | Start sector | End sector
    ---------------------------------------------------------
        1  |  0:00.00 |  4:50.42 |         0    |    21791
        2  |  4:50.42 |  4:27.50 |     21792    |    41866
        3  |  9:18.17 |  3:42.70 |     41867    |    58586
        4  | 13:01.12 |  3:39.28 |     58587    |    75039
        5  | 16:40.40 |  3:45.35 |     75040    |    91949
        6  | 20:26.00 |  4:21.50 |     91950    |   111574
        7  | 24:47.50 |  2:19.27 |    111575    |   122026
        8  | 27:07.02 |  3:20.05 |    122027    |   137031
        9  | 30:27.07 |  3:21.55 |    137032    |   152161
       10  | 33:48.62 |  4:55.10 |    152162    |   174296
       11  | 38:43.72 |  3:08.45 |    174297    |   188441

Track  1

     Filename E:\Temp\Charlie Parker\Bird - Warner 1988\01 - Lester Leaps in.wav

     Pre-gap length  0:00:02.00

     Peak level 89.7 %
     Track quality 99.9 %
     Copy CRC D556BD02
     Cannot be verified as accurate (confidence 8)  [4B365C4D], AccurateRip returned [BBA4DA25]
     Copy OK

Track  2

     Filename E:\Temp\Charlie Parker\Bird - Warner 1988\02 - I Can't Believe that You're in Love with Me.wav

     Pre-gap length  0:00:01.46

     Peak level 90.3 %
     Track quality 100.0 %
     Copy CRC 6CE22207
     Cannot be verified as accurate (confidence 9)  [9E6894AA], AccurateRip returned [57C79776]
     Copy OK

Track  3

     Filename E:\Temp\Charlie Parker\Bird - Warner 1988\03 - Laura.wav

     Pre-gap length  0:00:02.45

     Peak level 60.8 %
     Track quality 100.0 %
     Copy CRC C0043C64
     Cannot be verified as accurate (confidence 9)  [2F585F47], AccurateRip returned [D0A2C9BF]
     Copy OK

Track  4

     Filename E:\Temp\Charlie Parker\Bird - Warner 1988\04 - All of Me.wav

     Pre-gap length  0:00:02.70

     Peak level 83.1 %
     Track quality 100.0 %
     Copy CRC 4BF82DAF
     Cannot be verified as accurate (confidence 9)  [313F621A], AccurateRip returned [6368EBFE]
     Copy OK

Track  5

     Filename E:\Temp\Charlie Parker\Bird - Warner 1988\05 - This Time the Dream's On Me.wav

     Pre-gap length  0:00:02.37

     Peak level 80.6 %
     Track quality 99.9 %
     Copy CRC 358F1E9D
     Cannot be verified as accurate (confidence 8)  [FBC2ED03], AccurateRip returned [6D51B11F]
     Copy OK

Track  6

     Filename E:\Temp\Charlie Parker\Bird - Warner 1988\06 - Ko Ko.wav

     Pre-gap length  0:00:01.43

     Peak level 100.0 %
     Track quality 99.9 %
     Copy CRC 5A5B6237
     Cannot be verified as accurate (confidence 8)  [7EC64C22], AccurateRip returned [98FCD70A]
     Copy OK

Track  7

     Filename E:\Temp\Charlie Parker\Bird - Warner 1988\07 - Cool Blues.wav

     Pre-gap length  0:00:02.14

     Peak level 82.7 %
     Track quality 100.0 %
     Copy CRC D74373F9
     Cannot be verified as accurate (confidence 8)  [B68DB8F4], AccurateRip returned [F68B2650]
     Copy OK

Track  8

     Filename E:\Temp\Charlie Parker\Bird - Warner 1988\08 - April in Paris.wav

     Pre-gap length  0:00:02.21

     Peak level 53.9 %
     Track quality 100.0 %
     Copy CRC E6FB56CC
     Cannot be verified as accurate (confidence 8)  [3CDE6D76], AccurateRip returned [E2435682]
     Copy OK

Track  9

     Filename E:\Temp\Charlie Parker\Bird - Warner 1988\09 - Now's the Time.wav

     Pre-gap length  0:00:02.30

     Peak level 100.0 %
     Track quality 100.0 %
     Copy CRC 75B952C2
     Cannot be verified as accurate (confidence 9)  [7054F791], AccurateRip returned [69DCB639]
     Copy OK

Track 10

     Filename E:\Temp\Charlie Parker\Bird - Warner 1988\10 - Ornithology.wav

     Pre-gap length  0:00:01.51

     Peak level 77.1 %
     Track quality 100.0 %
     Copy CRC A2A3A063
     Cannot be verified as accurate (confidence 8)  [D6A5DC81], AccurateRip returned [3B817C05]
     Copy OK

Track 11

     Filename E:\Temp\Charlie Parker\Bird - Warner 1988\11 - Parker's Mood.wav

     Pre-gap length  0:00:01.21

     Peak level 56.0 %
     Track quality 100.0 %
     Copy CRC 192B1BD7
     Cannot be verified as accurate (confidence 9)  [D7482729], AccurateRip returned [1D160639]
     Copy OK

No tracks could be verified as accurate
You may have a different pressing from the one(s) in the database

No errors occurred

End of status report
Содержание индексной карты (.CUE)
REM ACCURATERIPID 0011ecf3-0098e922-8909d00b
REM GENRE "Soundtrack"
REM DATE 1988
REM DISCID 8909D00B
REM COMMENT "ExactAudioCopy v0.99pb4"
PERFORMER "Charlie Parker"
TITLE "Bird"
FILE "01 - Lester Leaps In.flac" WAVE
  TRACK 01 AUDIO
    TITLE "Lester Leaps In"
    PERFORMER "Charlie Parker"
    INDEX 01 00:00:00
  TRACK 02 AUDIO
    TITLE "I Can't Believe That You're in Love with Me"
    PERFORMER "Charlie Parker"
    INDEX 00 04:48:71
FILE "02 - I Can't Believe That You're in Love with Me.flac" WAVE
    INDEX 01 00:00:00
  TRACK 03 AUDIO
    TITLE "Laura"
    PERFORMER "Charlie Parker"
    INDEX 00 04:25:05
FILE "03 - Laura.flac" WAVE
    INDEX 01 00:00:00
  TRACK 04 AUDIO
    TITLE "All of Me"
    PERFORMER "Charlie Parker"
    INDEX 00 03:40:00
FILE "04 - All of Me.flac" WAVE
    INDEX 01 00:00:00
  TRACK 05 AUDIO
    TITLE "This Time the Dream's on Me"
    PERFORMER "Charlie Parker"
    INDEX 00 03:36:66
FILE "05 - This Time the Dream's on Me.flac" WAVE
    INDEX 01 00:00:00
  TRACK 06 AUDIO
    TITLE "Ko Ko"
    PERFORMER "Charlie Parker"
    INDEX 00 03:43:67
FILE "06 - Ko Ko.flac" WAVE
    INDEX 01 00:00:00
  TRACK 07 AUDIO
    TITLE "Cool Blues"
    PERFORMER "Charlie Parker"
    INDEX 00 04:19:36
FILE "07 - Cool Blues.flac" WAVE
    INDEX 01 00:00:00
  TRACK 08 AUDIO
    TITLE "April in Paris"
    PERFORMER "Charlie Parker"
    INDEX 00 02:17:06
FILE "08 - April in Paris.flac" WAVE
    INDEX 01 00:00:00
  TRACK 09 AUDIO
    TITLE "Now's the Time"
    PERFORMER "Charlie Parker"
    INDEX 00 03:17:50
FILE "09 - Now's the Time.flac" WAVE
    INDEX 01 00:00:00
  TRACK 10 AUDIO
    TITLE "Ornithology"
    PERFORMER "Charlie Parker"
    INDEX 00 03:20:04
FILE "10 - Ornithology.flac" WAVE
    INDEX 01 00:00:00
  TRACK 11 AUDIO
    TITLE "Parker's Mood"
    PERFORMER "Charlie Parker"
    INDEX 00 04:53:64
FILE "11 - Parker's Mood.flac" WAVE
    INDEX 01 00:00:00
Лог проверки качества
[Verification date: 13.1.10 12:37:15]
[Disc ID: 0011ecf3-0098e922-8909d00b]
Track [ CRC    ] Status
 01 [4b365c4d] (00/12) No matches
 02 [9e6894aa] (00/13) No matches
 03 [2f585f47] (00/13) No matches
 04 [313f621a] (00/13) No matches
 05 [fbc2ed03] (00/12) No matches
 06 [7ec64c22] (00/12) No matches
 07 [b68db8f4] (00/12) No matches
 08 [3cde6d76] (00/12) No matches
 09 [7054f791] (00/13) No matches
 10 [d6a5dc81] (00/12) No matches
 11 [d7482729] (00/13) No matches
Offsetted by -270:
 01 [e9261641] (02/12) Accurately ripped
 02 [f0912d34] (02/13) Accurately ripped
 03 [adda0f6b] (02/13) Accurately ripped
 04 [6d0548f8] (02/13) Accurately ripped
 05 [1373f725] (02/12) Accurately ripped
 06 [ec60dcce] (02/12) Accurately ripped
 07 [12c78776] (02/12) Accurately ripped
 08 [d7446fe0] (02/12) Accurately ripped
 09 [b3a3995d] (02/13) Accurately ripped
 10 [9c0f590f] (02/12) Accurately ripped
 11 [173dadbb] (02/13) Accurately ripped

Track [ CRC32  ] [W/O NULL]
 -- [BD7BFDFB] [E9664C2F]
 01 [D556BD02] [CDDC5485]
 02 [6CE22207] [C9E7F51E]
 03 [C0043C64] [04206984]
 04 [4BF82DAF] [341FA37C]
 05 [358F1E9D] [5B1B7235]
 06 [5A5B6237] [CCC557ED]
 07 [D74373F9] [C36610B8]
 08 [E6FB56CC] [601B103B]
 09 [75B952C2] [CA43257A]
 10 [A2A3A063] [9C8364E0]
 11 [192B1BD7] [4B5DE26A]
Приватный:
Нет (DHT включён)
Размер:
234.55 Мб (245,947,377 байт) » файлов: 22
Участники:
10 раздают, 3 качают (13 участников всего)
Внешние участники:
5 раздают, 2 качают (7 участников всего) [ Обновить ]
19:09
148
Нет комментариев. Ваш будет первым!