Поиск

1985 Jon Faddis - Legacy {Concord Jazz CCD-4291}

1985 Jon Faddis - Legacy {Concord Jazz CCD-4291}
Стили:
Страна-производитель диска (релиза):
USA
Дата записи диска:
сентябрь 1985
Дата издания диска:
1985
Издатель (лейбл):
Номер по каталогу:
CCD-4291
Носитель:
CD
Битрейт аудио:
lossless
Аудиокодек:
FLAC (*.flac)
Тип рипа:
tracks+.cue
Время звучания:
42:40
Наличие сканов:
  • да
Релизёр (источник):
b00st

Состав:

01. West End Blues 5:35
02. Little Jazz 5:37
03. A Night in Tunisia 6:02
04. Instigator 4:44
05. Things to Come 3:31
06. A Child Is Born 7:00
07. Lil' Darlin' 4:09
08. Whisper Not 5:31

Лог создания рипа
EAC extraction logfile from 20. August 2007, 23:05 for CD
Jon Faddis / Legacy
Used drive : Optiarc DVD RW AD-7173A Adapter: 1 ID: 0
Read mode : Secure with NO C2, accurate stream, disable cache
Read offset correction : 48
Overread into Lead-In and Lead-Out : No
Used output format : C:\Program Files\FLAC\flac.exe (User Defined Encoder) 128 kBit/s Additional command line options : -T "artist=%a" -T "title=%t" -T "album=%g" -T "date=%y" -T "tracknumber=%n" -T "genre=%m" -5 %s
Other options : Fill up missing offset samples with silence : Yes Delete leading and trailing silent blocks : No Native Win32 interface for Win NT & 2000
Track 1 Filename D:\Albums\Backup\Jon Faddis - Legacy (1985)\01-West End Blues.wav Peak level 100.0 % Track quality 100.0 % Copy CRC 09B001C9 Copy OK
Track 2 Filename D:\Albums\Backup\Jon Faddis - Legacy (1985)\02-Little Jazz.wav Peak level 100.0 % Track quality 100.0 % Copy CRC 71F8DF78 Copy OK
Track 3 Filename D:\Albums\Backup\Jon Faddis - Legacy (1985)\03-A Night in Tunisia.wav Peak level 100.0 % Track quality 100.0 % Copy CRC 747C1667 Copy OK
Track 4 Filename D:\Albums\Backup\Jon Faddis - Legacy (1985)\04-Instigator.wav Peak level 100.0 % Track quality 100.0 % Copy CRC 1B57D038 Copy OK
Track 5 Filename D:\Albums\Backup\Jon Faddis - Legacy (1985)\05-Things to Come.wav Peak level 100.0 % Track quality 100.0 % Copy CRC C5639A86 Copy OK
Track 6 Filename D:\Albums\Backup\Jon Faddis - Legacy (1985)\06-A Child is Born.wav Peak level 94.2 % Track quality 99.9 % Copy CRC 99EF1EA2 Copy OK
Track 7 Filename D:\Albums\Backup\Jon Faddis - Legacy (1985)\07-Li'l Darlin'.wav Peak level 95.8 % Track quality 100.0 % Copy CRC 8F06FBB6 Copy OK
Track 8 Filename D:\Albums\Backup\Jon Faddis - Legacy (1985)\08-Whisper Not.wav Peak level 100.0 % Track quality 100.0 % Copy CRC 979F173F Copy OK
No errors occured
End of status report
Содержание индексной карты (.CUE)
REM GENRE Jazz
REM DATE 1985
REM DISCID 670A0208
REM COMMENT "ExactAudioCopy v0.95b4"
PERFORMER "Jon Faddis"
TITLE "Legacy"
FILE "01-West End Blues.flac" WAVE TRACK 01 AUDIO TITLE "West End Blues" PERFORMER "Jon Faddis" INDEX 01 00:00:00
FILE "02-Little Jazz.flac" WAVE TRACK 02 AUDIO TITLE "Little Jazz" PERFORMER "Jon Faddis" INDEX 01 00:00:00
FILE "03-A Night in Tunisia.flac" WAVE TRACK 03 AUDIO TITLE "A Night in Tunisia" PERFORMER "Jon Faddis" INDEX 01 00:00:00
FILE "04-Instigator.flac" WAVE TRACK 04 AUDIO TITLE "Instigator" PERFORMER "Jon Faddis" INDEX 01 00:00:00
FILE "05-Things to Come.flac" WAVE TRACK 05 AUDIO TITLE "Things to Come" PERFORMER "Jon Faddis" INDEX 01 00:00:00
FILE "06-A Child is Born.flac" WAVE TRACK 06 AUDIO TITLE "A Child is Born" PERFORMER "Jon Faddis" INDEX 01 00:00:00
FILE "07-Li'l Darlin'.flac" WAVE TRACK 07 AUDIO TITLE "Li'l Darlin'" PERFORMER "Jon Faddis" INDEX 01 00:00:00
FILE "08-Whisper Not.flac" WAVE TRACK 08 AUDIO TITLE "Whisper Not" PERFORMER "Jon Faddis" INDEX 01 00:00:00
Приватный:
Нет (DHT включён)
Размер:
246.66 Мб (258,637,692 байт) » файлов: 15
Участники:
0 раздают, 0 качают (0 участников всего)
Внешние участники:
2 раздают, 1 качают (3 участников всего) [ Обновить ]
12:07
809
RSS
Нет комментариев. Ваш будет первым!