Поиск

1985 (2016) Monty Alexander - Sunday Night {Timeless CDSOL-6424}

1985 (2016) Monty Alexander - Sunday Night {Timeless CDSOL-6424}
Стили:
Страна-производитель диска (релиза):
USA
Дата записи диска:
октябрь 1985
Дата издания диска:
2016
Издатель (лейбл):
Номер по каталогу:
CDSOL-6424
Носитель:
CD
Битрейт аудио:
lossless
Аудиокодек:
FLAC (*.flac)
Тип рипа:
tracks+.cue
Время звучания:
62:33
Наличие сканов:
  • да
Релизёр (источник):
ruskaval
Треклист:

01. Old Devil Moon (9:54)
02. You'd Be So Nice To Come Home To (6:57)
03. More Or Wes (5:07)
04. Who Cares (9:17)
05. Renewal (14:50)
06. Joyspring (10:31)
07. African Bee (5:57)

Состав:

Rec.: live at Valentine's, Orland, FL, October 1985.

Лог создания рипа
Exact Audio Copy V1.1 from 23. June 2015

EAC extraction logfile from 9. January 2017, 8:25

Monty Alexander / Sunday Night

Used drive  : HL-DT-STDVDRAM GP50NW41   Adapter: 1  ID: 0

Read mode               : Secure
Utilize accurate stream : Yes
Defeat audio cache      : Yes
Make use of C2 pointers : No

Read offset correction                      : 6
Overread into Lead-In and Lead-Out          : No
Fill up missing offset samples with silence : Yes
Delete leading and trailing silent blocks   : No
Null samples used in CRC calculations       : Yes
Used interface                              : Native Win32 interface for Win NT & 2000
Gap handling                                : Appended to previous track

Used output format              : User Defined Encoder
Selected bitrate                : 1024 kBit/s
Quality                         : High
Add ID3 tag                     : No
Command line compressor         : C:\Program Files (x86)\FLAC Frontend\tools\flac.exe
Additional command line options : -8 -V -T "ARTIST=%artist%" -T "TITLE=%title%" -T "ALBUM=%albumtitle%" -T "DATE=%year%" -T "TRACKNUMBER=%tracknr%" -T "TOTALTRACKS=%numtracks%" -T "GENRE=%genre%" -T "ALBUMARTIST=%albumartist%" -T "ALBUM ARTIST=%albumartist%" -T "COMMENT=EAC Secure Mode, Test & Copy, AccurateRip, FLAC -8" %source%

TOC of the extracted CD

     Track |   Start  |  Length  | Start sector | End sector
    ---------------------------------------------------------
        1  |  0:00.00 |  9:54.06 |         0    |    44555
        2  |  9:54.06 |  6:57.03 |     44556    |    75833
        3  | 16:51.09 |  5:07.09 |     75834    |    98867
        4  | 21:58.18 |  9:17.08 |     98868    |   140650
        5  | 31:15.26 | 14:50.07 |    140651    |   207407
        6  | 46:05.33 | 10:31.00 |    207408    |   254732
        7  | 56:36.33 |  5:57.02 |    254733    |   281509

Track  1

     Filename D:\_EAC\Monty Alexander - Sunday Night (1985) [FLAC] {CDSOL-6424}\01 - Old Devil Moon.wav

     Pre-gap length  0:00:02.00

     Peak level 97.7 %
     Extraction speed 1.3 X
     Track quality 100.0 %
     Test CRC D40FEB89
     Copy CRC D40FEB89
     Accurately ripped (confidence 1)  [53BEDF05]  (AR v2)
     Copy OK

Track  2

     Filename D:\_EAC\Monty Alexander - Sunday Night (1985) [FLAC] {CDSOL-6424}\02 - You'd Be So Nice To Come Home To.wav

     Peak level 97.7 %
     Extraction speed 1.5 X
     Track quality 100.0 %
     Test CRC 8938997F
     Copy CRC 8938997F
     Accurately ripped (confidence 1)  [32EB9073]  (AR v2)
     Copy OK

Track  3

     Filename D:\_EAC\Monty Alexander - Sunday Night (1985) [FLAC] {CDSOL-6424}\03 - More Or Wes.wav

     Peak level 97.7 %
     Extraction speed 1.6 X
     Track quality 100.0 %
     Test CRC C905DB17
     Copy CRC C905DB17
     Accurately ripped (confidence 1)  [9CDA6A11]  (AR v2)
     Copy OK

Track  4

     Filename D:\_EAC\Monty Alexander - Sunday Night (1985) [FLAC] {CDSOL-6424}\04 - Who Cares.wav

     Peak level 97.7 %
     Extraction speed 1.8 X
     Track quality 99.9 %
     Test CRC D208028C
     Copy CRC D208028C
     Accurately ripped (confidence 1)  [4E5B82AA]  (AR v2)
     Copy OK

Track  5

     Filename D:\_EAC\Monty Alexander - Sunday Night (1985) [FLAC] {CDSOL-6424}\05 - Renewal.wav

     Peak level 97.7 %
     Extraction speed 2.1 X
     Track quality 99.9 %
     Test CRC 2FD268FC
     Copy CRC 2FD268FC
     Accurately ripped (confidence 1)  [8FC4D641]  (AR v2)
     Copy OK

Track  6

     Filename D:\_EAC\Monty Alexander - Sunday Night (1985) [FLAC] {CDSOL-6424}\06 - Joyspring.wav

     Peak level 97.7 %
     Extraction speed 2.4 X
     Track quality 100.0 %
     Test CRC A221F0C9
     Copy CRC A221F0C9
     Accurately ripped (confidence 1)  [41422E76]  (AR v2)
     Copy OK

Track  7

     Filename D:\_EAC\Monty Alexander - Sunday Night (1985) [FLAC] {CDSOL-6424}\07 - African Bee.wav

     Peak level 97.7 %
     Extraction speed 2.4 X
     Track quality 100.0 %
     Test CRC 349DABF2
     Copy CRC 349DABF2
     Accurately ripped (confidence 1)  [C111DEE9]  (AR v2)
     Copy OK

All tracks accurately ripped

No errors occurred

End of status report

==== Log checksum E082F3DDDA1FE5DACB01E7DDD40D7AD4B9CF3AE7A2B188210220B0F692037F82 ====
Содержание индексной карты (.CUE)
REM GENRE Jazz
REM DATE 1985
REM DISCID 650EA907
REM COMMENT "ExactAudioCopy v1.1"
PERFORMER "Monty Alexander"
TITLE "Sunday Night"
FILE "01 - Old Devil Moon.wav" WAVE
  TRACK 01 AUDIO
    TITLE "Old Devil Moon"
    PERFORMER "Monty Alexander"
    INDEX 01 00:00:00
FILE "02 - You'd Be So Nice To Come Home To.wav" WAVE
  TRACK 02 AUDIO
    TITLE "You'd Be So Nice To Come Home To"
    PERFORMER "Monty Alexander"
    INDEX 01 00:00:00
FILE "03 - More Or Wes.wav" WAVE
  TRACK 03 AUDIO
    TITLE "More Or Wes"
    PERFORMER "Monty Alexander"
    INDEX 01 00:00:00
FILE "04 - Who Cares.wav" WAVE
  TRACK 04 AUDIO
    TITLE "Who Cares"
    PERFORMER "Monty Alexander"
    INDEX 01 00:00:00
FILE "05 - Renewal.wav" WAVE
  TRACK 05 AUDIO
    TITLE "Renewal"
    PERFORMER "Monty Alexander"
    INDEX 01 00:00:00
FILE "06 - Joyspring.wav" WAVE
  TRACK 06 AUDIO
    TITLE "Joyspring"
    PERFORMER "Monty Alexander"
    INDEX 01 00:00:00
FILE "07 - African Bee.wav" WAVE
  TRACK 07 AUDIO
    TITLE "African Bee"
    PERFORMER "Monty Alexander"
    INDEX 01 00:00:00
Приватный:
Нет (DHT включён)
Размер:
612.57 Мб (642,327,781 байт) » файлов: 24
Участники:
0 раздают, 1 качают (1 участников всего)
Внешние участники:
3 раздают, 1 качают (4 участников всего) [ Обновить ]
Скорость:
647.34 Кб/c 0/c
20:08
54
RSS
Нет комментариев. Ваш будет первым!