Поиск

1982 (2013) Mose Allison - Middle Class White Boy {Warner WPCR-27431}

1982 (2013) Mose Allison - Middle Class White Boy {Warner WPCR-27431}
Страна-производитель диска (релиза):
Japan
Дата записи диска:
2-3 февраля 1982
Дата издания диска:
2013
Издатель (лейбл):
Номер по каталогу:
8122-796009-4/WPCR-27431
Носитель:
CD
Аудиокодек:
FLAC (*.flac)
Тип рипа:
image+.cue
Битрейт аудио:
1
Время звучания:
39:58
Треклист:

01. How Does It Feel? (To Be Good Looking) (4:15)
02. Rollin' Stone (3:43)
03. I Don't Want Much (3:16)
04. Middle Class White Boy (4:38)
05. When My Dreamboat Comes Home (4:18)
06. I'm Nobody Today (4:01)
07. I'm Just A Lucky So-And-So (2:49)
08. Back Down South (3:54)
09. The Tennesee Waltz (2:45)
10. Hello There, Universe (3:24)
11. Kiddin' On The Square (2:54)

Лог создания рипа
Exact Audio Copy V1.3 from 2. September 2016

EAC extraction logfile from 15. October 2017, 2:17

Mose Allison / Middle Class White Boy

Used drive  : ATAPI   iHAS124   D   Adapter: 0  ID: 2

Read mode               : Secure
Utilize accurate stream : Yes
Defeat audio cache      : Yes
Make use of C2 pointers : No

Read offset correction                      : 6
Overread into Lead-In and Lead-Out          : No
Fill up missing offset samples with silence : Yes
Delete leading and trailing silent blocks   : No
Null samples used in CRC calculations       : Yes
Used interface                              : Installed external ASPI interface

Used output format              : User Defined Encoder
Selected bitrate                : 1024 kBit/s
Quality                         : High
Add ID3 tag                     : No
Command line compressor         : C:\Program Files (x86)\Exact Audio Copy\Flac\flac.exe
Additional command line options : -6 -V -T "ARTIST=%artist%" -T "TITLE=%title%" -T "ALBUM=%albumtitle%" -T "DATE=%year%" -T "TRACKNUMBER=%tracknr%" -T "GENRE=%genre%" -T "COMMENT=%comment%" -T "BAND=%albuminterpret%" -T "ALBUMARTIST=%albuminterpret%" -T "COMPOSER=%composer%" %haslyrics%--tag-from-file=LYRICS="%lyricsfile%"%haslyrics% -T "DISCNUMBER=%cdnumber%" -T "TOTALDISCS=%totalcds%" -T "TOTALTRACKS=%numtracks%" %hascover%--picture="%coverfile%"%hascover% %source% -o %dest%

TOC of the extracted CD

     Track |   Start  |  Length  | Start sector | End sector
    ---------------------------------------------------------
        1  |  0:00.00 |  4:15.34 |         0    |    19158
        2  |  4:15.34 |  3:42.62 |     19159    |    35870
        3  |  7:58.21 |  3:16.09 |     35871    |    50579
        4  | 11:14.30 |  4:37.62 |     50580    |    71416
        5  | 15:52.17 |  4:17.71 |     71417    |    90762
        6  | 20:10.13 |  4:00.69 |     90763    |   108831
        7  | 24:11.07 |  2:49.11 |    108832    |   121517
        8  | 27:00.18 |  3:54.10 |    121518    |   139077
        9  | 30:54.28 |  2:45.06 |    139078    |   151458
       10  | 33:39.34 |  3:23.66 |    151459    |   166749
       11  | 37:03.25 |  2:54.18 |    166750    |   179817

Range status and errors

Selected range

     Filename C:\mm\Mose Allison\1982 - Middle Class White Boy [8122-79600-9]\Mose Allison - Middle Class White Boy.wav

     Peak level 100.0 %
     Extraction speed 7.9 X
     Range quality 100.0 %
     Test CRC 03D92864
     Copy CRC 03D92864
     Copy OK

No errors occurred

AccurateRip summary

Track  1  cannot be verified as accurate (confidence 1)  [8FDE97A5], AccurateRip returned [065D62BC]  (AR v2)
Track  2  accurately ripped (confidence 1)  [FE5530CF]  (AR v2)
Track  3  accurately ripped (confidence 1)  [780BD7EC]  (AR v2)
Track  4  accurately ripped (confidence 1)  [8807C85E]  (AR v2)
Track  5  accurately ripped (confidence 1)  [8832823F]  (AR v2)
Track  6  accurately ripped (confidence 1)  [E7715071]  (AR v2)
Track  7  accurately ripped (confidence 1)  [EBF59CA1]  (AR v2)
Track  8  accurately ripped (confidence 1)  [81940C4E]  (AR v2)
Track  9  accurately ripped (confidence 1)  [FE1ACEC8]  (AR v2)
Track 10  accurately ripped (confidence 1)  [C9AA7194]  (AR v2)
Track 11  accurately ripped (confidence 1)  [FC8A9281]  (AR v2)

10 трек(и) скопированы точно
 1 трек(и) не удалось проверить на точность

Some tracks could not be verified as accurate

End of status report

---- CUETools DB Plugin V2.1.6

[CTDB TOCID: sO6AOuwTjIDcBqYbijRXWWz1A1w-] found
Submit result: sO6AOuwTjIDcBqYbijRXWWz1A1w- has been confirmed
Track | CTDB Status
  1   | (6/6) Accurately ripped
  2   | (6/6) Accurately ripped
  3   | (6/6) Accurately ripped
  4   | (6/6) Accurately ripped
  5   | (6/6) Accurately ripped
  6   | (6/6) Accurately ripped
  7   | (6/6) Accurately ripped
  8   | (6/6) Accurately ripped
  9   | (6/6) Accurately ripped
 10   | (6/6) Accurately ripped
 11   | (6/6) Accurately ripped
Содержание индексной карты (.CUE)
REM GENRE Jazz
REM DATE 1982
REM DISCID 83095D0B
REM COMMENT "ExactAudioCopy v1.3"
PERFORMER "Mose Allison"
TITLE "Middle Class White Boy"
FILE "Mose Allison - Middle Class White Boy.flac" WAVE
  TRACK 01 AUDIO
    TITLE "How Does It Feel? (To Be Good Looking)"
    PERFORMER "Mose Allison"
    INDEX 01 00:00:00
  TRACK 02 AUDIO
    TITLE "Rollin' Stone"
    PERFORMER "Mose Allison"
    INDEX 00 04:13:53
    INDEX 01 04:15:34
  TRACK 03 AUDIO
    TITLE "I Don't Want Much"
    PERFORMER "Mose Allison"
    INDEX 00 07:56:14
    INDEX 01 07:58:21
  TRACK 04 AUDIO
    TITLE "Middle Class White Boy"
    PERFORMER "Mose Allison"
    INDEX 00 11:13:12
    INDEX 01 11:14:30
  TRACK 05 AUDIO
    TITLE "When My Dreamboat Comes Home"
    PERFORMER "Mose Allison"
    INDEX 00 15:50:55
    INDEX 01 15:52:17
  TRACK 06 AUDIO
    TITLE "I'm Nobody Today"
    PERFORMER "Mose Allison"
    INDEX 00 20:07:73
    INDEX 01 20:10:13
  TRACK 07 AUDIO
    TITLE "I'm Just A Lucky So-And-So"
    PERFORMER "Mose Allison"
    INDEX 00 24:09:28
    INDEX 01 24:11:07
  TRACK 08 AUDIO
    TITLE "Back Down South"
    PERFORMER "Mose Allison"
    INDEX 00 26:58:34
    INDEX 01 27:00:18
  TRACK 09 AUDIO
    TITLE "The Tennesee Waltz"
    PERFORMER "Mose Allison"
    INDEX 00 30:52:73
    INDEX 01 30:54:28
  TRACK 10 AUDIO
    TITLE "Hello There, Universe"
    PERFORMER "Mose Allison"
    INDEX 00 33:37:68
    INDEX 01 33:39:34
  TRACK 11 AUDIO
    TITLE "Kiddin' On The Square"
    PERFORMER "Mose Allison"
    INDEX 00 37:01:70
    INDEX 01 37:03:25
Приватный:
Нет (DHT включён)
Размер:
296.13 Мб (310,516,314 байт) » файлов: 12
Участники:
2 раздают, 1 качают (3 участников всего)
Внешние участники:
1 раздают, 0 качают (1 участников всего) [ Обновить ]
Скорость:
291.58 Кб/c 0/c
10:07
242
Нет комментариев. Ваш будет первым!