Поиск

1980 (2000) Wynton Marsalis — Best Of The Early Years

1980 (2000) Wynton Marsalis — Best Of The Early Years
Страна-производитель диска (релиза):
USA
Дата записи диска:
11 октября 1980
Дата издания диска:
2000
Носитель:
CD
Битрейт аудио:
lossless
Аудиокодек:
FLAC (*.flac)
Тип рипа:
image+.cue
Время звучания:
75:12
Наличие сканов:
  • нет
Релизёр (источник):
(OHATA
Треклист:
01. One by one 5:30
02. My funny valentine 9:10
03. 'round midnight 7:00
04. E. T. A. 6:03
05. Time will tell 12:18
06. Blakey's theme 2:52
07. Angel eyes 9:12
08. Jodi 6:22
09. Moanin' 10:22
10. My ideal 6:14

 

Состав:

Recorded October 11, 1980 at Bubba's Jazz Restaurant, Ft.Lauderdale, Florida, USA
Лог создания рипа
<spoiler title="Лог создания рипа"><pre>Отчёт EAC об извлечении, выполненном 3. декабря 2007, 21:22 для диска:
Winton Marsalis / Best of the early Years
Дисковод: TSSTcorpCDDVDW SH-S203D Adapter: 2 ID: 1
Режим чтения: Достоверный (C2: нет, Точный поток: да, Отключение кэша: да)
Коррекция смещения при чтении: 0
Способность читать области Lead-in и Lead-out : Нет
Выходной формат: Внутренние WAV-операции
44.100 Гц; 16 бит; стерео
Другие параметры:
Заполнение пропущенных сэмплов тишиной : Да
Удаление блоков с тишиной в начале и конце : Нет
Встроенный Win32-интерфейс для Win NT/2000
Трек 1
Имя файла C:\Documents and Settings\01 - One by One.wav
Пиковый уровень 97.6 %
Качество трека 99.9 %
CRC теста B893BC14
CRC копии B893BC14
Копирование... OK
Трек 2
Имя файла C:\Documents and Settings\02 - My Funny Valentine.wav
Пиковый уровень 97.6 %
Качество трека 100.0 %
CRC теста D4D217CA
CRC копии D4D217CA
Копирование... OK
Трек 3
Имя файла C:\Documents and Settings\03 - 'Round midnight.wav
Пиковый уровень 97.6 %
Качество трека 100.0 %
CRC теста D6A898D9
CRC копии D6A898D9
Копирование... OK
Трек 4
Имя файла C:\Documents and Settings\04 - E.T.A..wav
Пиковый уровень 97.6 %
Качество трека 100.0 %
CRC теста C8B131DA
CRC копии C8B131DA
Копирование... OK
Трек 5
Имя файла C:\Documents and Settings\05 - Time Will Tell.wav
Пиковый уровень 97.6 %
Качество трека 100.0 %
CRC теста 4FFC8ADF
CRC копии 4FFC8ADF
Копирование... OK
Трек 6
Имя файла C:\Documents and Settings\06 - Blakey's theme.wav
Пиковый уровень 97.6 %
Качество трека 100.0 %
CRC теста 037F1FF6
CRC копии 037F1FF6
Копирование... OK
Трек 7
Имя файла C:\Documents and Settings\07 - Angel Eyes.wav
Пиковый уровень 100.0 %
Качество трека 99.9 %
CRC теста 055CDB02
CRC копии 055CDB02
Копирование... OK
Трек 8
Имя файла C:\Documents and Settings\08 - Jodi.wav
Пиковый уровень 100.0 %
Качество трека 100.0 %
CRC теста 47EB675D
CRC копии 47EB675D
Копирование... OK
Трек 9
Имя файла C:\Documents and Settings\09 - Moanin'.wav
Пиковый уровень 100.0 %
Качество трека 100.0 %
CRC теста CC2702BF
CRC копии CC2702BF
Копирование... OK
Трек 10
Имя файла C:\Documents and Settings\10 - My ideal.wav
Пиковый уровень 100.0 %
Качество трека 100.0 %
CRC теста C405A97D
CRC копии C405A97D
Копирование... OK
Ошибок не произошло
Конец отчёта</pre></spoiler>
Приватный:
Нет (DHT включён)
Размер:
443.51 Мб (465,056,046 байт) » файлов: 14
Участники:
0 раздают, 0 качают (0 участников всего)
Внешние участники:
5 раздают, 2 качают (7 участников всего) [ Обновить ]
01:04
37
RSS
Нет комментариев. Ваш будет первым!