Поиск

1979 (1994) Pat Metheny - American Garage {ECM 21155}

1979 (1994) Pat Metheny - American Garage {ECM 21155}
Страна-производитель диска (релиза):
USA
Дата записи диска:
июнь 1979
Дата издания диска:
1 ноября 1979
Дата переиздания диска:
1994
Издатель (лейбл):
Номер по каталогу:
21155
Носитель:
CD
Битрейт аудио:
lossless
Аудиокодек:
FLAC (*.flac)
Тип рипа:
tracks+.cue

Треклист:

01. (Cross the) Heartland
02. Airstream
03. The Search
04. American Garage
05. The Epic

Состав:
  • Mark Egan    Bass, Bass (Electric)
  • Danny Gottlieb    Drums, Drums (Snare)
  • Jesse Henderson    Assistant Engineer, Engineer
  • Lyle Mays    Autoharp, Composer, Keyboards, Oberheim Synthesizer, Organ, Piano, Piano (Electric)
  • Pat Metheny    Bass, Composer, Guitar, Guitar (12 String), Producer
  • Kent Nebergall    Engineer

Записано в 

  • Long View Farm Recording Studio, North Brookfield, MA
  • Longview Farm, No., Brookfields
Лог создания рипа
EAC extraction logfile from 7. March 2007, 8:21 for CD
Pat Metheny Group / American Garage

Used drive : TEAC DV-W28EA Adapter: 1 ID: 0
Read mode : Secure with NO C2, accurate stream, disable cache
Read offset correction : 72
Overread into Lead-In and Lead-Out : No

Used output format : C:\Program Files\FLAC\flac.exe (User Defined Encoder)
320 kBit/s
Additional command line options : -8 -V -T "ARTIST=%a" -T "TITLE=%t" -T "ALBUM=%g" -T "DATE=%y" -T "TRACKNUMBER=%n" -T "GENRE=%m" -T "COMMENT=EAC 0.95 beta 4, FLAC 1.1.4 -8" %s

Other options :
Fill up missing offset samples with silence : Yes
Delete leading and trailing silent blocks : No
Installed external ASPI interface

Track 1
Filename C:\xxx\Pat Metheny Group (1979) American Garage\01. (Cross the) Heartland.wav

Pre-gap length 0:00:02.37

Peak level 78.2 %
Track quality 99.9 %
Test CRC 8D4C6E02
Copy CRC 8D4C6E02
Copy OK

Track 2
Filename C:\xxx\Pat Metheny Group (1979) American Garage\02. Airstream.wav

Pre-gap length 0:00:02.12

Peak level 78.7 %
Track quality 100.0 %
Test CRC 0B366A6F
Copy CRC 0B366A6F
Copy OK

Track 3
Filename C:\xxx\Pat Metheny Group (1979) American Garage\03. The Search.wav

Pre-gap length 0:00:02.35

Peak level 66.4 %
Track quality 100.0 %
Test CRC 88DAD4DB
Copy CRC 88DAD4DB
Copy OK

Track 4
Filename C:\xxx\Pat Metheny Group (1979) American Garage\04. American Garage.wav

Pre-gap length 0:00:02.71

Peak level 82.8 %
Track quality 100.0 %
Test CRC 38D57132
Copy CRC 38D57132
Copy OK

Track 5
Filename C:\xxx\Pat Metheny Group (1979) American Garage\05. The Epic.wav

Pre-gap length 0:00:01.29

Peak level 72.6 %
Track quality 100.0 %
Test CRC CBB07A76
Copy CRC CBB07A76
Copy OK

No errors occured

End of status report
01:00
292
RSS
Нет комментариев. Ваш будет первым!