Поиск

1979 (1993) Oscar Peterson - Paris Concert, Salle Pleyel, 1978 (2CD) {Pablo 20112}

1979 (1993) Oscar Peterson - Paris Concert, Salle Pleyel, 1978 (2CD) {Pablo 20112}
Стили:
Страна-производитель диска (релиза):
USA
Дата записи диска:
5 октября 1978
Дата издания диска:
1979
Дата переиздания диска:
22 ноября 1993
Издатель (лейбл):
Номер по каталогу:
20112
Носитель:
CD
Битрейт аудио:
lossless
Аудиокодек:
FLAC (*.flac)
Тип рипа:
image+.cue
Время звучания:
01:29:17
Наличие сканов:
  • web
Релизёр (источник):
groverq

Треклист:

CD01 - 42:28
01. Please Don't Talk About Me When I'm Gone 6:54
02. Who Can I Turn To 8:09
03. Benny's Bugle 6:13
04. Soft Winds 8:27
05. Goodbye 6:18
06. Place St. Henri 5:02
CD02 - 52:51
01. Medley 9:35
- Manha de carnaval (A Day in the Life of a Fool)
- If
02. Ornithology 4:47
03. Blue Lou 3:29
04. How Long Has This Been Going On 5:12
05. Gentle Tears 5:59
06. Lover Man (Oh Where Can You Be)
07. Samba de Orfeu (I Want to Live) 4:36
08. Donna Lee 2:45
09. Sweet Georgia Brown 6:24

Состав:
  • Norman Granz Producer
  • Benny Green Liner Notes
  • Joe Pass Composer, Guitar
  • Niels-Henning Ørsted Pedersen Bass
  • Oscar Peterson Composer, Guitar, Piano
Лог создания рипа
<spoiler title="EAC logs"><spoiler title="CD 01"><pre>Exact Audio Copy V0.99 prebeta 3 from 28. July 2007
Отчёт EAC об извлечении, выполненном 20. августа 2007, 0:48
Oscar Peterson / The Paris Concert - Disc 1
Дисковод: HL-DT-STDVDRAM GSA-4080N Adapter: 1 ID: 0
Режим чтения : Достоверность
Использование точного потока : Да
Отключение кэша аудио : Да
Использование указателей C2 : Нет
Коррекция смещения при чтении : 667
Способность читать области Lead-in и Lead-out : Нет
Заполнение пропущенных сэмплов тишиной : Да
Удаление блоков с тишиной в начале и конце : Нет
При вычислениях CRC использовались нулевые сэмплы : Да
Интерфейс : Встроенный Win32-интерфейс для Win NT/2000
Обработка зазоров : Добавлено к предыдущему треку
Выходной формат : Пользовательский кодировщик
Выбранный битрейт : 1024 kBit/s
Качество : Высокий
Добавление ID3-тэга : Нет
Утилита сжатия : C:\Program Files\Exact Audio Copy\FLAC\FLAC.EXE
Дополнительные параметры : -6 -V -T "ARTIST=%a" -T "TITLE=%t" -T "ALBUM=%g" -T "DATE=%y" -T "TRACKNUMBER=%n" -T "GENRE=%m" -T "COMMENT=%e" %s -o %d
TOC извлечённого CD
Трек | Старт | Длительность | Начальный сектор | Конечный сектор
---------------------------------------------------------------------
1 | 0:00.00 | 7:13.27 | 0 | 32501
2 | 7:13.27 | 8:27.50 | 32502 | 70576
3 | 15:41.02 | 6:11.40 | 70577 | 98441
4 | 21:52.42 | 8:56.40 | 98442 | 138681
5 | 30:49.07 | 6:33.03 | 138682 | 168159
6 | 37:22.10 | 5:06.27 | 168160 | 191136
Трек 1
Имя файла D:\downloads\Oscar Peterson - The Paris Concert\01 - Please Don't Talk About Me When I'm Gone.wav
Длина предзазора 0:00:02.00
Пиковый уровень 97.0 %
Качество трека 100.0 %
CRC копии 1AD52568
Копирование... OK
Трек 2
Имя файла D:\downloads\Oscar Peterson - The Paris Concert\02 - Who Can I Turn To.wav
Пиковый уровень 96.8 %
Качество трека 100.0 %
CRC копии 5199910B
Копирование... OK
Трек 3
Имя файла D:\downloads\Oscar Peterson - The Paris Concert\03 - Benny's Bugle.wav
Пиковый уровень 97.0 %
Качество трека 100.0 %
CRC копии 785831E7
Копирование... OK
Трек 4
Имя файла D:\downloads\Oscar Peterson - The Paris Concert\04 - Soft Winds.wav
Пиковый уровень 97.5 %
Качество трека 100.0 %
CRC копии 6714F1FE
Копирование... OK
Трек 5
Имя файла D:\downloads\Oscar Peterson - The Paris Concert\05 - Goodbye.wav
Пиковый уровень 96.9 %
Качество трека 100.0 %
CRC копии AC472DC0
Копирование... OK
Трек 6
Имя файла D:\downloads\Oscar Peterson - The Paris Concert\06 - Place St. Henri.wav
Пиковый уровень 93.7 %
Качество трека 100.0 %
CRC копии 4D3D8CBC
Копирование... OK
Ошибок не произошло
Конец отчёта</pre></spoiler><spoiler title="CD 02"><pre>Exact Audio Copy V0.99 prebeta 3 from 28. July 2007
Отчёт EAC об извлечении, выполненном 20. августа 2007, 10:19
Oscar Peterson / The Paris Concert - Disc 2
Дисковод: HL-DT-STDVDRAM GSA-4080N Adapter: 1 ID: 0
Режим чтения : Достоверность
Использование точного потока : Да
Отключение кэша аудио : Да
Использование указателей C2 : Нет
Коррекция смещения при чтении : 667
Способность читать области Lead-in и Lead-out : Нет
Заполнение пропущенных сэмплов тишиной : Да
Удаление блоков с тишиной в начале и конце : Нет
При вычислениях CRC использовались нулевые сэмплы : Да
Интерфейс : Встроенный Win32-интерфейс для Win NT/2000
Обработка зазоров : Добавлено к предыдущему треку
Выходной формат : Пользовательский кодировщик
Выбранный битрейт : 1024 kBit/s
Качество : Высокий
Добавление ID3-тэга : Нет
Утилита сжатия : C:\Program Files\Exact Audio Copy\FLAC\FLAC.EXE
Дополнительные параметры : -6 -V -T "ARTIST=%a" -T "TITLE=%t" -T "ALBUM=%g" -T "DATE=%y" -T "TRACKNUMBER=%n" -T "GENRE=%m" -T "COMMENT=%e" %s -o %d
TOC извлечённого CD
Трек | Старт | Длительность | Начальный сектор | Конечный сектор
---------------------------------------------------------------------
1 | 0:00.00 | 9:38.65 | 0 | 43414
2 | 9:38.65 | 5:04.45 | 43415 | 66259
3 | 14:43.35 | 3:41.20 | 66260 | 82854
4 | 18:24.55 | 5:19.20 | 82855 | 106799
5 | 23:44.00 | 6:37.60 | 106800 | 136634
6 | 30:21.60 | 5:10.57 | 136635 | 159941
7 | 35:32.42 | 4:53.68 | 159942 | 181984
8 | 40:26.35 | 2:54.50 | 181985 | 195084
9 | 43:21.10 | 6:30.47 | 195085 | 224381
Трек 1
Имя файла D:\downloads\Oscar Peterson - The Paris Concert\01 - MEDLEY- Manha De Carnaval, If.wav
Длина предзазора 0:00:02.00
Пиковый уровень 96.7 %
Качество трека 100.0 %
CRC копии B2622E6D
Копирование... OK
Трек 2
Имя файла D:\downloads\Oscar Peterson - The Paris Concert\02 - Ornithology.wav
Пиковый уровень 96.7 %
Качество трека 100.0 %
CRC копии E10FE214
Копирование... OK
Трек 3
Имя файла D:\downloads\Oscar Peterson - The Paris Concert\03 - Blue Lou.wav
Пиковый уровень 94.6 %
Качество трека 100.0 %
CRC копии 00E33D41
Копирование... OK
Трек 4
Имя файла D:\downloads\Oscar Peterson - The Paris Concert\04 - How Long Has This Been Going On.wav
Пиковый уровень 96.2 %
Качество трека 100.0 %
CRC копии F84CBF5F
Копирование... OK
Трек 5
Имя файла D:\downloads\Oscar Peterson - The Paris Concert\05 - Gentle Tears.wav
Пиковый уровень 57.3 %
Качество трека 99.9 %
CRC копии 3743526D
Копирование... OK
Трек 6
Имя файла D:\downloads\Oscar Peterson - The Paris Concert\06 - Lover Man.wav
Пиковый уровень 84.5 %
Качество трека 100.0 %
CRC копии C11C8CF9
Копирование... OK
Трек 7
Имя файла D:\downloads\Oscar Peterson - The Paris Concert\07 - Samba De Orfeu.wav
Пиковый уровень 72.7 %
Качество трека 100.0 %
CRC копии 1AF85D72
Копирование... OK
Трек 8
Имя файла D:\downloads\Oscar Peterson - The Paris Concert\08 - Donna Lee.wav
Пиковый уровень 76.3 %
Качество трека 99.9 %
CRC копии 5F355D26
Копирование... OK
Трек 9
Имя файла D:\downloads\Oscar Peterson - The Paris Concert\09 - Sweet Georgia Brown.wav
Пиковый уровень 97.6 %
Качество трека 100.0 %
CRC копии 12E93AE6
Копирование... OK
Ошибок не произошло
Конец отчёта</pre></spoiler></spoiler>
Приватный:
Нет (DHT включён)
Размер:
436.65 Мб (457,858,210 байт) » файлов: 21
Участники:
0 раздают, 0 качают (0 участников всего)
Внешние участники:
1 раздают, 0 качают (1 участников всего) [ Обновить ]
13:01
84
RSS
Нет комментариев. Ваш будет первым!