Поиск

1978 (1994) Art Pepper - Among Friends

1978 (1994) Art Pepper - Among Friends
Страна-производитель диска (релиза):
Japan
Дата записи диска:
2 сентября 1978
Дата издания диска:
1978
Дата переиздания диска:
26 августа 2002
Номер по каталогу:
MTCJ-2542
Носитель:
CD
Битрейт аудио:
lossless
Аудиокодек:
FLAC (*.flac)
Тип рипа:
tracks
Время звучания:
44:04
Наличие сканов:
  • да
Релизёр (источник):
x_jane
Треклист:
01. Among Friends (6:22)
02. 'Round About Midnight (6:43)
03. I'm Getting Sentimental over You (5:01)
04. Blue Bossa (4:22)
05. What Is This Thing Called Love? (4:25)
06. What's New? (5:50)
07. Besame Mucho (6:58)
08. I'll Remember April (5:44)
09. Blue Bossa (4:19)                                        
Состав:
  • Frank Butler Drums
  • Russ Freeman Piano
  • Bob Magnusson Bass
  • Art Pepper Composer, Sax (Alto)
  • Edward Perry Engineer
  • Toshiya Taenaka Producer
Лог создания рипа
EAC extraction logfile from 13. December 2005, 14:39 for CD
Art Pepper / Among Friends
Used drive : PLEXTOR DVDR PX-716A Adapter: 0 ID: 0
Read mode : Secure with NO C2, accurate stream, disable cache
Read offset correction : 30
Overread into Lead-In and Lead-Out : No
Used output format : Internal WAV Routines
44.100 Hz; 16 Bit; Stereo
Other options :
Fill up missing offset samples with silence : Yes
Delete leading and trailing silent blocks : No
Native Win32 interface for Win NT & 2000
Track 1
Filename F:\STUFF\BTMUSIC\tip\Art Pepper - Among Friends (1978) [FLAC] {\01 - Among friends.wav
Pre-gap length 0:00:02.00
Peak level 98.8 %
Track quality 100.0 %
Test CRC 6A30317E
Copy CRC 6A30317E
Copy OK
Track 2
Filename F:\STUFF\BTMUSIC\tip\Art Pepper - Among Friends (1978) [FLAC] {\02 - Round about midnight.wav
Pre-gap length 0:00:03.40
Peak level 98.8 %
Track quality 99.9 %
Test CRC DD0CED3E
Copy CRC DD0CED3E
Copy OK
Track 3
Filename F:\STUFF\BTMUSIC\tip\Art Pepper - Among Friends (1978) [FLAC] {\03 - I'm getting sentimental over you.wav
Pre-gap length 0:00:03.40
Peak level 98.8 %
Track quality 99.9 %
Test CRC 35A78399
Copy CRC 35A78399
Copy OK
Track 4
Filename F:\STUFF\BTMUSIC\tip\Art Pepper - Among Friends (1978) [FLAC] {\04 - Blue bossa.wav
Pre-gap length 0:00:03.40
Peak level 98.8 %
Track quality 100.0 %
Test CRC D80A38AE
Copy CRC D80A38AE
Copy OK
Track 5
Filename F:\STUFF\BTMUSIC\tip\Art Pepper - Among Friends (1978) [FLAC] {\05 - What is this thing called love.wav
Pre-gap length 0:00:03.40
Peak level 98.8 %
Track quality 99.9 %
Test CRC 17EDB151
Copy CRC 17EDB151
Copy OK
Track 6
Filename F:\STUFF\BTMUSIC\tip\Art Pepper - Among Friends (1978) [FLAC] {\06 - What's new.wav
Pre-gap length 0:00:03.40
Peak level 98.8 %
Track quality 100.0 %
Test CRC 3A26230A
Copy CRC 3A26230A
Copy OK
Track 7
Filename F:\STUFF\BTMUSIC\tip\Art Pepper - Among Friends (1978) [FLAC] {\07 - Besame mucho.wav
Pre-gap length 0:00:03.40
Peak level 98.8 %
Track quality 100.0 %
Test CRC C4D66DB2
Copy CRC C4D66DB2
Copy OK
Track 8
Filename F:\STUFF\BTMUSIC\tip\Art Pepper - Among Friends (1978) [FLAC] {\08 - I'll remember April.wav
Pre-gap length 0:00:03.40
Peak level 98.8 %
Track quality 100.0 %
Test CRC B8A71CDD
Copy CRC B8A71CDD
Copy OK
Track 9
Filename F:\STUFF\BTMUSIC\tip\Art Pepper - Among Friends (1978) [FLAC] {\09 - Blue bossa (take two).wav
Pre-gap length 0:00:03.40
Peak level 98.8 %
Track quality 100.0 %
Test CRC 77D5C988
Copy CRC 77D5C988
Copy OK
No errors occured
End of status report
20:07
91
RSS
Нет комментариев. Ваш будет первым!